<?xml version="1.0" standalone="no"?>
<!DOCTYPE svg PUBLIC "-//W3C//DTD SVG 1.1//EN" "http://www.w3.org/Graphics/SVG/1.1/DTD/svg11.dtd" >
<svg>
<metadata>
Created by FontForge 20120731 at Tue Apr  1 03:00:34 2025
 By www
Copyright (c) 1994-2002, Galapagos Design Group, Inc. All rights reserved
</metadata>
<defs>
<font id="NikkiNewRomanGDW01-Regular" horiz-adv-x="625" >
  <font-face 
    font-family="NikkiNewRomanGDW01-Regular"
    font-weight="400"
    font-stretch="normal"
    units-per-em="2048"
    panose-1="2 10 5 2 6 5 6 4 3 3"
    ascent="1638"
    descent="-410"
    x-height="967"
    cap-height="1493"
    bbox="-78 -512 2927 1960"
    underline-thickness="102"
    underline-position="-256"
    unicode-range="U+0020-2122"
  />
<missing-glyph horiz-adv-x="1024" 
d="M102 -362v1806h1024v-1806h-1024zM217 -248h795v1577h-795v-1577z" />
    <glyph glyph-name=".notdef" horiz-adv-x="1024" 
d="M102 -362v1806h1024v-1806h-1024zM217 -248h795v1577h-795v-1577z" />
    <glyph glyph-name=".null" horiz-adv-x="0" 
 />
    <glyph glyph-name="nonmarkingreturn" horiz-adv-x="682" 
 />
    <glyph glyph-name="space" unicode=" " horiz-adv-x="637" 
 />
    <glyph glyph-name="exclam" unicode="!" horiz-adv-x="635" 
d="M432 76q0 -61 -26 -88t-87 -27q-58 0 -86 27t-28 84q0 58 27 86t83 28q58 0 87.5 -28t29.5 -82zM225 1411l-88 25v57h363v-57l-88 -25l-54 -1083h-82z" />
    <glyph glyph-name="quotedbl" unicode="&#x22;" horiz-adv-x="696" 
d="M432 1360q0 8 -2 25q-2 33 -2 42q0 46 22 70.5t62 24.5q38 0 61 -24t23 -62q0 -14 -3 -54q-1 -14 -1 -22l-37 -297h-86zM104 1360q0 16 -2 40t-2 30q0 44 22 68t62 24q38 0 61 -24t23 -62q0 -15 -2 -53q-1 -14 -2 -23l-37 -297h-86z" />
    <glyph glyph-name="numbersign" unicode="#" horiz-adv-x="1815" 
d="M1190 1004h-428l-152 -406h428zM1751 1104l-37 -100h-405l-152 -406h406l-37 -100h-406l-200 -537h-121l202 537h-428l-200 -537h-119l201 537h-394l39 100h392l151 406h-391l37 100h391l158 418h118l-157 -418h428l155 418h119l-155 -418h405z" />
    <glyph glyph-name="dollar" unicode="$" horiz-adv-x="1249" 
d="M641 61q128 15 182 91t54 243q0 126 -49 186t-187 105v-625zM553 901v526q-110 -21 -151.5 -77.5t-41.5 -204.5q0 -116 39 -164t154 -80zM641 872q235 -63 325.5 -154t90.5 -257q0 -231 -97.5 -338.5t-318.5 -122.5v-195h-88l-1 195q-132 5 -219 24t-136 54v371h57
l59 -273q50 -59 103.5 -86t122.5 -27h14v654q-216 64 -289.5 146t-73.5 255q0 178 85 264t278 103v153h88v-153h12q79 0 153 -18t146 -54v-301h-65l-37 215q-29 42 -80 66.5t-129 33.5v-555z" />
    <glyph glyph-name="percent" unicode="%" horiz-adv-x="2107" 
d="M297 995q0 -189 52.5 -267.5t176.5 -78.5q125 0 175.5 74t50.5 272q0 267 -49.5 364t-172.5 97q-131 0 -182 -82t-51 -336v-43zM1358 371q0 -189 53 -267.5t176 -78.5q125 0 175 74t50 274q0 266 -49.5 363.5t-171.5 97.5q-132 0 -182.5 -82.5t-50.5 -337.5v-43z
M928 1065q0 -248 -94.5 -363.5t-296.5 -115.5q-215 0 -317.5 111t-102.5 343q0 251 99.5 366.5t315.5 115.5q203 0 299.5 -111t96.5 -346zM1688 1522l-1135 -1561h-129l1135 1561h129zM1989 440q0 -248 -94.5 -363.5t-297.5 -115.5q-214 0 -316.5 111.5t-102.5 343.5
q0 249 100 365t315 116q203 0 299.5 -111t96.5 -346z" />
    <glyph glyph-name="ampersand" unicode="&#x26;" horiz-adv-x="1268" 
d="M1221 782l-316 11q95 -23 150 -96.5t55 -178.5v-143q0 -201 -136.5 -307.5t-395.5 -106.5q-265 0 -383.5 104.5t-118.5 335.5q0 209 70 310.5t231 128.5q-86 32 -126 102t-40 186q0 219 87 306.5t304 87.5q86 0 171 -18t169 -54l27 -320h-68q-41 221 -99 277.5t-198 56.5
t-187.5 -63.5t-47.5 -272.5q0 -182 43.5 -230t191.5 -48h10v-57h-16q-221 0 -283.5 -69t-62.5 -321q0 -211 73 -297t250 -86q200 0 284.5 89.5t84.5 306.5v102q0 130 -62.5 200.5t-181.5 74.5v57l521 31v-99z" />
    <glyph glyph-name="quotesingle" unicode="'" horiz-adv-x="369" 
d="M104 1360q0 16 -2 40t-2 30q0 44 22 68t62 24q38 0 61 -24t23 -62q0 -15 -2 -53q-1 -14 -2 -23l-37 -297h-86z" />
    <glyph glyph-name="parenleft" unicode="(" horiz-adv-x="623" 
d="M545 -481h-15q-220 0 -308.5 199t-88.5 737v123q0 540 89.5 737.5t312.5 197.5h10v-58q-4 0 -10 0.5t-17 0.5q-118 0 -164.5 -178t-46.5 -700v-123q0 -523 46.5 -701t164.5 -178q11 0 16.5 0.5t10.5 1.5v-59z" />
    <glyph glyph-name="parenright" unicode=")" horiz-adv-x="623" 
d="M489 455q0 -538 -88.5 -737t-308.5 -199h-14v59q4 -1 9.5 -1.5t16.5 -0.5q118 0 164.5 180.5t46.5 698.5v123q0 518 -46.5 698t-164.5 180q-11 0 -16.5 -0.5t-9.5 -1.5v59h14q221 0 309 -198t88 -737v-123z" />
    <glyph glyph-name="asterisk" unicode="*" horiz-adv-x="1024" 
d="M924 948l-97 -168l-30 19l10 43l-262 176l20 -316l43 -12v-35h-192v35l43 12l20 316l-262 -176l10 -43l-30 -19l-97 168l31 17l33 -31l282 139l-282 141l-33 -32l-31 18l97 166l30 -16l-10 -43l262 -177l-20 316l-43 12v35h192v-35l-43 -12l-20 -316l262 177l-10 43
l30 16l97 -166l-31 -18l-33 32l-282 -141l282 -139l33 31z" />
    <glyph glyph-name="plus" unicode="+" horiz-adv-x="1249" 
d="M1112 440h-434v-432h-109v432h-432v111h432v432h109v-432h434v-111z" />
    <glyph glyph-name="comma" unicode="," 
d="M338 -39h-8q-68 0 -98.5 26.5t-30.5 84.5t27 86t83 28q64 0 90.5 -37.5t26.5 -134.5q0 -136 -48 -201t-149 -65h-12v64q63 10 91 42.5t28 94.5v12z" />
    <glyph glyph-name="hyphen" unicode="-" 
d="M516 426h-410v139h410v-139z" />
    <glyph glyph-name="period" unicode="." 
d="M428 76q0 -61 -26 -88t-87 -27q-58 0 -86 27t-28 84q0 58 27 86t83 28q57 0 87 -28t30 -82z" />
    <glyph glyph-name="slash" unicode="/" horiz-adv-x="547" 
d="M625 1522l-584 -1561h-119l584 1561h119z" />
    <glyph glyph-name="zero" unicode="0" horiz-adv-x="1243" 
d="M940 664q0 467 -67.5 633.5t-237.5 166.5q-191 0 -259.5 -150t-68.5 -671q0 -341 74 -480.5t248 -139.5q176 0 243.5 128.5t67.5 512.5zM1128 760q0 -288 -30 -426t-101 -228q-56 -73 -145 -109t-213 -36q-173 0 -275 50t-178 171q-36 59 -53.5 189.5t-17.5 347.5
q0 290 30.5 425.5t102.5 231.5q51 69 152.5 107.5t234.5 38.5q266 0 379.5 -173t113.5 -589z" />
    <glyph glyph-name="one" unicode="1" horiz-adv-x="895" 
d="M819 0h-686v57l258 25v1282l-293 -115l-24 47l413 226h74v-1440l258 -25v-57z" />
    <glyph glyph-name="two" unicode="2" horiz-adv-x="1251" 
d="M1079 434l-24 -434h-932v115q423 298 584 509.5t161 446.5q0 193 -77 292t-228 99q-98 0 -163 -31t-111 -100l-39 -278h-64v372q109 53 196.5 75t180.5 22q235 0 360.5 -119t125.5 -340q0 -204 -144.5 -387t-615.5 -518h653l74 276h63z" />
    <glyph glyph-name="three" unicode="3" horiz-adv-x="1206" 
d="M692 764q201 -25 284 -110.5t83 -264.5q0 -227 -129 -327.5t-422 -100.5q-104 0 -198.5 13.5t-182.5 39.5v318h63l39 -221q58 -46 130.5 -68.5t164.5 -22.5q186 0 269.5 87.5t83.5 281.5q0 185 -93 260.5t-323 75.5q-41 0 -61.5 -0.5t-38.5 -1.5l-1 76h193
q137 0 207.5 86t70.5 254q0 176 -66 249.5t-224 73.5q-91 0 -151 -25.5t-114 -84.5l-38 -222h-64v316q102 40 192 58t187 18q218 0 333 -98.5t115 -282.5q0 -150 -73 -239.5t-236 -137.5z" />
    <glyph glyph-name="four" unicode="4" horiz-adv-x="1272" 
d="M702 510v782l-571 -809zM1182 393h-316v-311l260 -25v-57h-686v57l262 25v311h-645v80l738 1049h71v-1004l316 21v-146z" />
    <glyph glyph-name="five" unicode="5" horiz-adv-x="1233" 
d="M293 883q55 26 118.5 38.5t141.5 12.5q264 0 398 -117.5t134 -347.5q0 -239 -144 -373.5t-402 -134.5q-114 0 -209 25.5t-195 83.5v360h62l39 -258q78 -83 148.5 -117.5t162.5 -34.5q169 0 266.5 120t97.5 327q0 194 -94 298.5t-270 104.5q-70 0 -131 -21t-117 -65
l-90 23l49 686h698l23 -338h-61l-56 180h-536z" />
    <glyph glyph-name="six" unicode="6" horiz-adv-x="1239" 
d="M940 469q0 259 -67 364t-226 105q-150 0 -245 -132.5t-95 -346.5q0 -213 83 -326t239 -113q173 0 242 96.5t69 352.5zM307 730q55 136 143.5 200.5t219.5 64.5q225 0 341.5 -122.5t116.5 -358.5q0 -280 -120.5 -416.5t-368.5 -136.5q-293 0 -408.5 153.5t-115.5 567.5
q0 454 130.5 647t432.5 193q89 0 172.5 -18t165.5 -54l24 -320h-67l-58 222q-12 51 -77 81.5t-162 30.5q-194 0 -282.5 -145t-88.5 -469q0 -48 0.5 -73t1.5 -47z" />
    <glyph glyph-name="seven" unicode="7" horiz-adv-x="1247" 
d="M1120 1415l-502 -1415h-225l631 1335h-782l-74 -278h-64l25 436h991v-78z" />
    <glyph glyph-name="eight" unicode="8" horiz-adv-x="1257" 
d="M969 408q0 198 -79.5 282t-266.5 84q-183 0 -258.5 -82.5t-75.5 -285.5q0 -198 85.5 -292t266.5 -94q162 0 245 98t83 290zM901 1159q0 161 -65.5 232t-212.5 71q-145 0 -205 -72.5t-60 -250.5q0 -174 62.5 -242t220.5 -68q137 0 198.5 78t61.5 252zM793 803
q191 -30 273.5 -121t82.5 -272q0 -223 -127 -336t-379 -113q-269 0 -401.5 105.5t-132.5 320.5q0 183 87 286.5t265 131.5q-143 43 -205.5 121.5t-62.5 212.5q0 204 99.5 293.5t330.5 89.5q223 0 333.5 -90t110.5 -271q0 -140 -66 -226t-208 -132z" />
    <glyph glyph-name="nine" unicode="9" horiz-adv-x="1249" 
d="M932 965q0 210 -96 351.5t-238 141.5q-155 0 -226 -106.5t-71 -341.5q0 -261 66.5 -365t226.5 -104q139 0 238.5 124t99.5 300zM932 751q-54 -136 -142 -201t-221 -65q-224 0 -341 123.5t-117 358.5q0 279 121 417t368 138q264 0 395 -190.5t131 -571.5q0 -421 -134 -610
t-431 -189q-102 0 -183 17t-153 53l-24 317h67l58 -219q14 -53 76 -82t161 -29q195 0 283 146.5t88 474.5q0 45 -0.5 68.5t-1.5 43.5z" />
    <glyph glyph-name="colon" unicode=":" 
d="M428 76q0 -61 -26 -88t-87 -27q-58 0 -86 27t-28 84q0 58 27 86t83 28q57 0 87 -28t30 -82zM428 883q0 -62 -26 -88.5t-87 -26.5q-58 0 -86 28t-28 85q0 58 27 86t83 28q57 0 87 -28.5t30 -83.5z" />
    <glyph glyph-name="semicolon" unicode=";" 
d="M338 -39h-8q-68 0 -98.5 26.5t-30.5 84.5t27 86t83 28q64 0 90.5 -37.5t26.5 -134.5q0 -136 -48 -201t-149 -65h-12v64q63 10 91 42.5t28 94.5v12zM428 883q0 -62 -26 -88.5t-87 -26.5q-58 0 -86 28t-28 85q0 58 27 86t83 28q57 0 87 -28.5t30 -83.5z" />
    <glyph glyph-name="less" unicode="&#x3c;" horiz-adv-x="1249" 
d="M1044 23l-884 411v123l882 412l48 -101l-803 -374l803 -373z" />
    <glyph glyph-name="equal" unicode="=" horiz-adv-x="1249" 
d="M1112 285h-975v108h975v-108zM1112 596h-975v111h975v-111z" />
    <glyph glyph-name="greater" unicode="&#x3e;" horiz-adv-x="1249" 
d="M205 969l885 -412v-123l-883 -411l-47 100l803 373l-803 374z" />
    <glyph glyph-name="question" unicode="?" horiz-adv-x="1018" 
d="M535 76q0 -61 -26.5 -88t-86.5 -27q-59 0 -87 27t-28 84q0 58 27 86t84 28t87 -28t30 -82zM416 752q164 0 241.5 78.5t77.5 244.5q0 206 -66.5 295.5t-217.5 89.5q-71 0 -128.5 -23.5t-109.5 -74.5l-33 -246h-63v342q82 32 167 48t175 16q224 0 338 -112t114 -331
q0 -202 -114.5 -312t-331.5 -116l-6 -323h-74l-8 424h39z" />
    <glyph glyph-name="at" unicode="@" horiz-adv-x="2048" 
d="M1851 -203q-204 -93 -406 -138.5t-409 -45.5q-517 0 -752 240t-235 768q0 444 264 680.5t760 236.5q459 0 690.5 -197.5t231.5 -588.5q0 -327 -130 -477t-413 -150q-124 0 -193 45.5t-69 126.5v18q-54 -89 -128 -139.5t-151 -50.5q-134 0 -213.5 93.5t-79.5 254.5
q0 237 120 374.5t325 137.5q63 0 115.5 -21t99.5 -65l29 86h137l-109 -620q-1 -7 -3 -18q-7 -38 -7 -58q0 -46 38 -73.5t103 -27.5q203 0 302.5 135t99.5 408q0 363 -199.5 551t-585.5 188q-414 0 -626.5 -217t-212.5 -643q0 -473 208.5 -690t665.5 -217q170 0 347 32
t364 97zM1249 786q0 66 -44.5 103t-125.5 37q-124 0 -209.5 -123t-85.5 -305q0 -120 54 -191t143 -71q77 0 131 48t78 138l11.5 61.5t23.5 126.5q12 66 18 109t6 67z" />
    <glyph glyph-name="A" unicode="A" horiz-adv-x="1528" 
d="M985 575l-293 705l-282 -705h575zM1528 0h-494v57l156 25l-182 434h-621l-172 -434l147 -25v-57h-372v57l147 25l563 1413h93l591 -1413l144 -25v-57z" />
    <glyph glyph-name="B" unicode="B" horiz-adv-x="1354" 
d="M633 61q207 0 308 84t101 256q0 175 -119.5 265t-353.5 90h-135v-695h199zM606 815q190 0 280.5 76.5t90.5 236.5q0 158 -104 232t-328 74h-111v-619h172zM881 782q173 -18 264.5 -111t91.5 -251q0 -226 -137 -323t-465 -97h-557v57l182 25v1329l-182 23v59h485
q331 0 460.5 -82.5t129.5 -280.5q0 -142 -64 -224t-208 -124z" />
    <glyph glyph-name="C" unicode="C" horiz-adv-x="1546" 
d="M1444 487l-43 -448q-113 -39 -248 -58.5t-291 -19.5q-398 0 -587 184.5t-189 573.5q0 433 182.5 618t610.5 185q122 0 245 -17t269 -55l22 -377h-65l-60 279q-77 55 -182.5 83.5t-230.5 28.5q-310 0 -451 -173.5t-141 -555.5q0 -358 140.5 -535t426.5 -177q104 0 207 27
t225 87l100 350h60z" />
    <glyph glyph-name="D" unicode="D" horiz-adv-x="1690" 
d="M774 61q320 0 478.5 167t158.5 503q0 370 -149.5 536.5t-479.5 166.5h-348v-1373h340zM840 1493q402 0 584 -174.5t182 -558.5t-203.5 -572t-618.5 -188h-706v57l182 25v1329l-182 25v57h762z" />
    <glyph glyph-name="E" unicode="E" horiz-adv-x="1298" 
d="M1206 449l-43 -449h-1077v57l180 25v1329l-180 25v57h1024l23 -377h-66l-74 318h-551v-596h402l45 233h57v-530h-57l-45 237h-402v-719h584l119 390h61z" />
    <glyph glyph-name="F" unicode="F" horiz-adv-x="1188" 
d="M1114 1092h-67l-74 342h-531v-633h383l43 235h58v-530h-58l-43 237h-383v-661l213 -25v-57h-569v57l180 25v1329l-180 25v57h1004z" />
    <glyph glyph-name="G" unicode="G" horiz-adv-x="1649" 
d="M1573 651l-103 -24v-490q-179 -89 -342.5 -132.5t-322.5 -43.5q-374 0 -546.5 181.5t-172.5 576.5q0 405 196.5 604t596.5 199q120 0 238.5 -16t275.5 -56l22 -377h-65l-60 279q-77 55 -182.5 83.5t-230.5 28.5q-293 0 -442.5 -189.5t-149.5 -559.5q0 -355 128.5 -523.5
t399.5 -168.5q117 0 237 52t246 158v394l-260 24v58h537v-58z" />
    <glyph glyph-name="H" unicode="H" horiz-adv-x="1716" 
d="M1638 0h-536v57l182 25v696h-850v-696l180 -25v-57h-536v57l182 25v1329l-182 25v57h536v-57l-180 -25v-563h850v563l-182 25v57h536v-57l-180 -25v-1329l180 -25v-57z" />
    <glyph glyph-name="I" unicode="I" horiz-adv-x="709" 
d="M623 0h-537v57l180 25v1329l-180 25v57h537v-57l-181 -25v-1329l181 -25v-57z" />
    <glyph glyph-name="J" unicode="J" horiz-adv-x="688" 
d="M614 1436l-180 -25v-1329q0 -182 -64 -304.5t-218 -236.5l-37 39q74 76 109.5 191.5t35.5 281.5v1358l-182 25v57h536v-57z" />
    <glyph glyph-name="K" unicode="K" horiz-adv-x="1446" 
d="M623 0h-537v57l180 25v1329l-180 25v57h537v-57l-181 -25v-1329l181 -25v-57zM1446 0h-531v57l162 25l-628 741l661 588l-182 25v57h458v-57l-178 -25l-600 -528l692 -801l146 -25v-57z" />
    <glyph glyph-name="L" unicode="L" horiz-adv-x="1260" 
d="M1225 487l-43 -487h-1096v57l180 25v1329l-180 25v57h569v-57l-213 -25v-1352h600l123 428h60z" />
    <glyph glyph-name="M" unicode="M" horiz-adv-x="2060" 
d="M1982 0h-536v57l182 25v1124l-594 -1208h-92l-616 1249v-1165l180 -25v-57h-428v57l180 25v1329l-180 25v57h319l645 -1296l635 1296h305v-57l-178 -25v-1329l178 -25v-57z" />
    <glyph glyph-name="N" unicode="N" horiz-adv-x="1655" 
d="M1577 1436l-178 -25v-1413h-27l-1036 1255v-1171l180 -25v-57h-428v57l178 25v1249l-67 82l-113 21v59h287l958 -1143v1061l-182 25v57h428v-57z" />
    <glyph glyph-name="O" unicode="O" horiz-adv-x="1733" 
d="M285 715q0 -337 151 -514.5t436 -177.5q259 0 419.5 200t160.5 527q0 341 -150 527.5t-423 186.5q-300 0 -447 -185t-147 -564zM883 -39q-403 0 -600 187.5t-197 570.5q0 410 194 606.5t601 196.5q388 0 577 -187.5t189 -574.5q0 -379 -201.5 -589t-562.5 -210z" />
    <glyph glyph-name="P" unicode="P" horiz-adv-x="1243" 
d="M606 733q209 0 295 78.5t86 267.5q0 183 -107 269t-335 86h-111v-701h172zM563 1493q351 0 479.5 -91.5t128.5 -320.5q0 -219 -135 -314t-458 -95q-43 0 -131 3q-9 1 -13 1v-594l174 -25v-57h-530v57l180 25v1329l-180 25v57h485z" />
    <glyph glyph-name="Q" unicode="Q" horiz-adv-x="1733" 
d="M872 23q260 0 420 200t160 531q0 338 -150.5 524t-422.5 186q-300 0 -447 -185t-147 -564q0 -337 151 -514.5t436 -177.5zM770 -39q-322 2 -503 202.5t-181 555.5q0 411 193.5 607t601.5 196q388 0 577 -187.5t189 -574.5q0 -362 -187 -572t-522 -227v-10
q0 -134 42.5 -186t152.5 -52q34 0 83 3t111 10v-74q-60 -12 -115 -18.5t-106 -6.5q-188 0 -262 69t-74 241v24z" />
    <glyph glyph-name="R" unicode="R" horiz-adv-x="1331" 
d="M563 791q211 0 305.5 77t94.5 248q0 168 -98 243t-320 75h-103v-643h121zM1311 0h-293l-416 731h-160v-649l174 -25v-57h-530v57l180 25v1329l-180 25v57h475q335 0 460.5 -84t125.5 -291q0 -171 -97.5 -269t-275.5 -106q23 -24 42.5 -50.5t37.5 -55.5l322 -555l135 -25
v-57z" />
    <glyph glyph-name="S" unicode="S" horiz-adv-x="1208" 
d="M852 1352q-12 46 -84.5 79t-169.5 33q-128 0 -191 -67.5t-63 -206.5q0 -84 27.5 -142.5t83.5 -95.5q49 -32 181 -76q49 -17 75 -26q209 -76 287.5 -170.5t78.5 -257.5q0 -237 -129.5 -349t-404.5 -112q-120 0 -221.5 20t-180.5 58l-24 410h61l80 -312q58 -61 126 -87.5
t169 -26.5q171 0 250.5 80t79.5 253q0 125 -55 192.5t-264 147.5q-13 5 -36 14q-242 93 -305 189q-30 46 -44.5 107.5t-14.5 148.5q0 178 119 272.5t344 94.5q80 0 161.5 -18t165.5 -54l23 -338h-66z" />
    <glyph glyph-name="T" unicode="T" horiz-adv-x="1327" 
d="M1327 1092h-67l-74 342h-434v-1352l211 -25v-57h-601v57l213 25v1352h-434l-75 -342h-66l23 401h1280z" />
    <glyph glyph-name="U" unicode="U" horiz-adv-x="1585" 
d="M1520 1436l-181 -25v-883q0 -282 -136.5 -424.5t-409.5 -142.5q-283 0 -414 138.5t-131 435.5v876l-182 25v57h536v-57l-178 -25v-811q0 -265 100.5 -386.5t319.5 -121.5q218 0 323 114t105 349v856l-182 25v57h430v-57z" />
    <glyph glyph-name="V" unicode="V" horiz-adv-x="1518" 
d="M1518 1436l-146 -25l-555 -1411h-92l-582 1411l-143 25v57h494v-57l-156 -25l489 -1188l465 1188l-147 25v57h373v-57z" />
    <glyph glyph-name="W" unicode="W" horiz-adv-x="2173" 
d="M1294 1411l-139 27l-151 -27l143 -367zM2183 1436l-147 -25l-553 -1411h-92l-299 733l-285 -733h-92l-582 1411l-143 25v57h493v-57l-155 -25l489 -1188l236 608l-238 580l-141 25v57h846v-57l-148 -25l-184 -463l305 -725l465 1188l-148 25v57h373v-57z" />
    <glyph glyph-name="X" unicode="X" horiz-adv-x="1456" 
d="M1450 0h-526v57l157 25l-391 606l-440 -606l147 -25v-57h-387v57l146 25l491 676l-420 653l-141 25v57h512v-57l-156 -25l328 -516l375 516l-148 25v57h387v-57l-145 -25l-428 -582l496 -747l143 -25v-57z" />
    <glyph glyph-name="Y" unicode="Y" horiz-adv-x="1333" 
d="M1315 1436l-148 -25l-411 -733v-596l211 -25v-57h-600v57l213 25v592l-426 737l-142 25v57h494v-57l-158 -25l373 -661l369 661l-148 25v57h373v-57z" />
    <glyph glyph-name="Z" unicode="Z" horiz-adv-x="1362" 
d="M1276 449l-43 -449h-1155v57l911 1377h-751l-74 -318h-66l23 377h1091v-57l-909 -1377h793l118 390h62z" />
    <glyph glyph-name="bracketleft" unicode="[" horiz-adv-x="623" 
d="M565 -459h-389v1952h389v-57h-223v-1837h223v-58z" />
    <glyph glyph-name="backslash" unicode="\" horiz-adv-x="547" 
d="M625 -39h-119l-584 1561h119z" />
    <glyph glyph-name="bracketright" unicode="]" 
d="M449 -459h-390v58h222v1837h-222v57h390v-1952z" />
    <glyph glyph-name="asciicircum" unicode="^" horiz-adv-x="1249" 
d="M1044 1044h-77l-342 293l-344 -293h-76l332 447h176z" />
    <glyph glyph-name="underscore" unicode="_" horiz-adv-x="975" 
d="M1014 -487h-1053v108h1053v-108z" />
    <glyph glyph-name="grave" unicode="`" horiz-adv-x="1024" 
d="M649 1083h-59l-252 236q-10 9 -14.5 20.5t-4.5 26.5q0 29 18 48.5t46 19.5q17 0 34.5 -10t26.5 -25z" />
    <glyph glyph-name="a" unicode="a" horiz-adv-x="1104" 
d="M737 508h-264q-127 0 -179 -54t-52 -184q0 -92 52.5 -141t151.5 -49q148 0 219.5 91.5t71.5 279.5v57zM1053 0h-308v205q-59 -126 -141 -185t-198 -59q-159 0 -247.5 81.5t-88.5 225.5q0 156 104.5 226.5t337.5 70.5h225v74q0 128 -58 190t-177 62q-90 0 -166 -24
t-168 -81v68q83 73 170.5 107t187.5 34q205 0 289 -85.5t84 -293.5v-530l154 -25v-61z" />
    <glyph glyph-name="b" unicode="b" horiz-adv-x="1241" 
d="M991 469q0 237 -77.5 352t-237.5 115q-175 0 -250.5 -101.5t-75.5 -338.5q0 -243 75.5 -359.5t231.5 -116.5q164 0 249 114.5t85 334.5zM350 879q77 59 160 87.5t180 28.5q240 0 358.5 -131t118.5 -395q0 -252 -128.5 -380t-381.5 -128q-113 0 -188.5 33t-142.5 110
l-95 -104h-41v1413l-143 25v55q119 27 187.5 39t103.5 12h12v-665z" />
    <glyph glyph-name="c" unicode="c" horiz-adv-x="1018" 
d="M940 141q-96 -91 -198 -135.5t-216 -44.5q-225 0 -338.5 129t-113.5 385q0 251 131 385.5t375 134.5q82 0 164 -15.5t165 -47.5v-342h-63l-33 246q-52 50 -109.5 74t-128.5 24q-161 0 -243 -116.5t-82 -346.5q0 -197 73.5 -293t225.5 -96q103 0 198 33.5t193 105.5v-80z
" />
    <glyph glyph-name="d" unicode="d" horiz-adv-x="1251" 
d="M563 20q146 0 236 125.5t90 331.5q0 220 -87 339.5t-247 119.5q-166 0 -235.5 -100t-69.5 -349q0 -236 77.5 -351.5t235.5 -115.5zM1049 86l153 -25v-61h-305v160q-63 -107 -142.5 -153t-203.5 -46q-240 0 -358.5 131t-118.5 395q0 258 118.5 383t362.5 125
q106 0 186 -39.5t148 -126.5v584l-187 25v55q137 28 214 39.5t118 11.5h15v-1458z" />
    <glyph glyph-name="e" unicode="e" horiz-adv-x="1036" 
d="M788 565v10q0 186 -62 274.5t-191 88.5q-137 0 -208 -94.5t-73 -277.5zM961 508h-711v-10q0 -215 69 -319.5t209 -104.5q94 0 190.5 30.5t205.5 94.5v-80q-99 -80 -196.5 -119t-199.5 -39q-234 0 -344 126t-110 394q0 254 118.5 384t350.5 130q210 0 315 -106t105 -318
q0 -1 -1 -9q-1 -27 -1 -54z" />
    <glyph glyph-name="f" unicode="f" horiz-adv-x="627" 
d="M723 1233h-55l-29 217q-18 7 -38.5 10.5t-43.5 3.5q-96 0 -144 -115t-48 -343v-41h178v-54h-178v-827l184 -27v-57h-488v57l144 27v827h-144v54h144v86q0 228 86.5 349.5t249.5 121.5q29 0 71.5 -5t110.5 -16v-268z" />
    <glyph glyph-name="g" unicode="g" horiz-adv-x="1161" 
d="M473 94q-125 0 -181 -47t-56 -151q0 -160 76 -225.5t263 -65.5q191 0 280 65t89 205q0 111 -68 165t-206 54h-197zM793 684q0 126 -61.5 192t-178.5 66q-116 0 -167.5 -70.5t-51.5 -232.5q0 -139 54.5 -203.5t170.5 -64.5q118 0 176 77.5t58 235.5zM862 907
q51 -49 75 -102.5t24 -118.5q0 -173 -99.5 -268.5t-279.5 -95.5q-10 0 -43.5 2t-57.5 2q-115 0 -166 -21.5t-51 -68.5q0 -30 23 -49.5t67 -26.5q34 -6 73.5 -8t121.5 -2h49q38 -1 76 -2.5t74 -4.5q189 -17 271.5 -77.5t82.5 -180.5q0 -167 -134.5 -255.5t-389.5 -88.5
q-261 0 -388 84.5t-127 257.5q0 106 54 173t149 81q-50 14 -76 43.5t-26 71.5q0 49 50 73t158 27q-102 20 -157 97t-55 200q0 171 99.5 258.5t293.5 87.5q53 0 162.5 -15t165.5 -15h219v-58h-238z" />
    <glyph glyph-name="h" unicode="h" horiz-adv-x="1229" 
d="M1180 0h-449v57l143 27v526q0 138 -57.5 202.5t-179.5 64.5q-135 0 -203.5 -100t-68.5 -298v-395l145 -27v-57h-449v57l144 27v1329l-144 25v55q123 28 189.5 39.5t101.5 11.5h13v-784q59 128 134.5 181.5t194.5 53.5q172 0 256 -85.5t84 -262.5v-563l146 -27v-57z" />
    <glyph glyph-name="i" unicode="i" horiz-adv-x="565" 
d="M510 0h-449v57l144 27v780l-144 23v55q148 33 207 43t90 10h7v-911l145 -27v-57zM389 1419q0 -43 -30 -73.5t-72 -30.5q-44 0 -74.5 29t-30.5 71q0 44 29.5 75.5t71.5 31.5q43 0 74.5 -30.5t31.5 -72.5z" />
    <glyph glyph-name="j" unicode="j" horiz-adv-x="541" 
d="M365 23q0 -115 -10.5 -177.5t-32.5 -105.5q-21 -42 -69.5 -91t-125.5 -108l-37 39q64 56 89.5 138.5t25.5 304.5v841l-144 23v55l258 53h46v-972zM389 1419q0 -44 -29 -74t-71 -30q-44 0 -74.5 29t-30.5 71q0 44 29.5 75.5t71.5 31.5t73 -30.5t31 -72.5z" />
    <glyph glyph-name="k" unicode="k" horiz-adv-x="1190" 
d="M1180 0h-473v57l143 27l-315 469l-170 -160v-309l145 -27v-57h-449v57l144 27v1329l-144 25v55q123 28 189.5 39.5t101.5 11.5h13v-1052l399 389l-143 28v56h391v-56l-144 -28l-229 -222l397 -575l144 -27v-57z" />
    <glyph glyph-name="l" unicode="l" horiz-adv-x="569" 
d="M512 0h-451v57l146 27v1329l-146 25v55q121 27 189 39t104 12h13v-1460l145 -27v-57z" />
    <glyph glyph-name="m" unicode="m" horiz-adv-x="1772" 
d="M1722 0h-448v57l141 27v528q0 139 -48.5 202t-156.5 63q-118 0 -180.5 -101.5t-62.5 -292.5v-399l147 -27v-57h-442v57l141 27v528q0 137 -49 201t-154 64q-128 0 -190 -97t-62 -297v-399l146 -27v-57h-443v57l144 27v780l-144 23v55q137 32 196 42.5t89 10.5h6v-243
q43 123 119 183t188 60q127 0 202.5 -67t94.5 -197q40 130 123.5 197t204.5 67q140 0 215.5 -90t75.5 -258v-563l147 -27v-57z" />
    <glyph glyph-name="n" unicode="n" horiz-adv-x="1229" 
d="M1180 0h-449v57l143 27v526q0 138 -56 202.5t-177 64.5q-137 0 -206.5 -100t-69.5 -298v-395l145 -27v-57h-449v57l144 27v780l-144 23v55q137 31 198.5 42t92.5 11h6v-243q56 129 135.5 186t204.5 57q168 0 252 -87t84 -261v-563l146 -27v-57z" />
    <glyph glyph-name="o" unicode="o" horiz-adv-x="1192" 
d="M942 510q0 201 -93.5 313.5t-260.5 112.5q-169 0 -253.5 -117t-84.5 -350q0 -215 90 -332t256 -117q163 0 254.5 129.5t91.5 360.5zM1118 498q0 -258 -134.5 -397.5t-383.5 -139.5q-259 0 -392.5 129t-133.5 379q0 261 129.5 393.5t384.5 132.5q259 0 394.5 -127
t135.5 -370z" />
    <glyph glyph-name="p" unicode="p" horiz-adv-x="1260" 
d="M1010 471q0 233 -79.5 350t-238.5 117q-158 0 -239.5 -113t-81.5 -331q0 -237 75 -355.5t224 -118.5q174 0 257 110t83 341zM362 846q87 76 176.5 112.5t186.5 36.5q232 0 346.5 -130t114.5 -394q0 -263 -125.5 -386.5t-390.5 -123.5q-104 0 -173.5 29.5t-125.5 95.5
v-461l164 -26v-58h-469v58l145 26v1243l-156 23v63q126 24 188.5 32.5t100.5 8.5h18v-149z" />
    <glyph glyph-name="q" unicode="q" horiz-adv-x="1237" 
d="M567 20q150 0 237 125t87 342q0 229 -83.5 339t-256.5 110q-167 0 -234 -92t-67 -332q0 -256 76 -374t241 -118zM1194 -459h-467v58l164 26v494q-64 -86 -140.5 -122t-199.5 -36q-242 0 -359.5 130t-117.5 396q0 262 115.5 385t361.5 123q112 0 200 -35t164 -110l95 108
h41v-1333l143 -26v-58z" />
    <glyph glyph-name="r" unicode="r" horiz-adv-x="834" 
d="M799 647h-58l-34 217q-16 6 -33 9.5t-37 3.5q-132 0 -202 -79.5t-70 -230.5v-483l145 -27v-57h-449v57l144 27v780l-144 23v55q137 31 198.5 42t92.5 11h6v-223q56 120 133.5 171.5t202.5 51.5q31 0 57 -5t48 -15v-328z" />
    <glyph glyph-name="s" unicode="s" horiz-adv-x="840" 
d="M608 848q-40 44 -86 65t-106 21q-103 0 -148 -36.5t-45 -119.5q0 -77 37.5 -117.5t181.5 -85.5q194 -59 251 -127t57 -202q0 -151 -80.5 -218t-261.5 -67q-92 0 -172 15t-152 47l-10 305h61l45 -211q49 -52 103 -74.5t135 -22.5q102 0 145 44.5t43 148.5q0 78 -43.5 123
t-191.5 94q-184 59 -228.5 117t-44.5 180q0 140 75.5 204t240.5 64q74 0 141 -15t139 -48l11 -264h-56z" />
    <glyph glyph-name="t" unicode="t" horiz-adv-x="682" 
d="M625 61q-55 -51 -108 -75.5t-109 -24.5q-118 0 -160.5 50t-42.5 214v682h-144v58h144v247l160 95v-342h219v-58h-219v-721q0 -73 21 -102t73 -29q37 0 78 16.5t88 51.5v-62z" />
    <glyph glyph-name="u" unicode="u" horiz-adv-x="1235" 
d="M1178 0h-308v205q-60 -126 -143 -186t-197 -60q-158 0 -246.5 92t-88.5 256v551l-144 23v55q132 33 197 46t96 13h10v-649q0 -129 56.5 -197.5t162.5 -68.5q146 0 218.5 92.5t72.5 278.5v407l-145 23v55q136 34 200 46.5t95 12.5h10v-909l154 -25v-61z" />
    <glyph glyph-name="v" unicode="v" horiz-adv-x="1079" 
d="M1087 911l-114 -28l-387 -883h-131l-349 883l-116 28v56h422v-56l-123 -28l284 -758l328 758l-125 28v56h311v-56z" />
    <glyph glyph-name="w" unicode="w" horiz-adv-x="1649" 
d="M1640 911l-114 -30l-326 -881h-131l-264 731l-250 -731h-129l-301 883l-117 28v56h414v-56l-123 -28l246 -748l278 832h70l295 -824l268 738l-125 30v56h309v-56z" />
    <glyph glyph-name="x" unicode="x" horiz-adv-x="1012" 
d="M993 0h-440v57l123 27l-219 328l-244 -328l125 -27v-57h-318v57l115 27l289 385l-283 414l-118 28v56h434v-56l-123 -28l196 -289l222 289l-125 28v56h315v-56l-115 -28l-264 -342l314 -457l116 -27v-57z" />
    <glyph glyph-name="y" unicode="y" horiz-adv-x="1090" 
d="M1100 911l-115 -28l-463 -1063q-71 -162 -132 -220.5t-148 -58.5q-35 0 -77.5 5t-105.5 16v268h56l29 -217q19 -8 40 -11t54 -3q121 0 280 380l8 21h-65l-348 883l-117 28v56h422v-56l-123 -28l285 -758l327 758l-125 28v56h318v-56z" />
    <glyph glyph-name="z" unicode="z" horiz-adv-x="958" 
d="M881 0h-826v37l574 872h-424l-35 -284h-61v342h725v-37l-574 -871h524l35 285h62v-344z" />
    <glyph glyph-name="braceleft" unicode="{" horiz-adv-x="975" 
d="M879 -459h-224q-129 0 -197.5 67.5t-68.5 194.5v463q0 125 -53.5 174t-188.5 49q-8 0 -24.5 -1t-24.5 -1l1 60q141 9 215.5 65t74.5 154v465q0 127 68.5 194.5t197.5 67.5h224v-59h-23h-41q-140 0 -195 -49.5t-55 -172.5v-462q0 -119 -47.5 -175.5t-148.5 -58.5
q102 -2 149 -57.5t47 -173.5v-465q0 -123 54 -171t194 -48h43h23v-60z" />
    <glyph glyph-name="bar" unicode="|" 
d="M367 -508h-109v2087h109v-2087z" />
    <glyph glyph-name="braceright" unicode="}" horiz-adv-x="975" 
d="M879 487q-9 0 -25 1t-25 1q-135 0 -189 -49.5t-54 -173.5v-463q0 -127 -68.5 -194.5t-198.5 -67.5h-221v60h23h43q139 0 192.5 48t53.5 171v465q0 119 47 174.5t149 56.5q-101 2 -148.5 58.5t-47.5 175.5v462q0 123 -54.5 172.5t-193.5 49.5h-41h-23v59h221
q130 0 198.5 -67.5t68.5 -194.5v-465q0 -98 73.5 -153.5t219.5 -65.5v-60z" />
    <glyph glyph-name="asciitilde" unicode="~" horiz-adv-x="1249" 
d="M1003 1368q-4 -115 -66.5 -180.5t-168.5 -65.5q-64 0 -167.5 49.5t-151.5 49.5q-54 0 -84.5 -26t-45.5 -83h-75q3 114 66.5 179t170.5 65q69 0 179.5 -49.5t160.5 -49.5q49 0 75.5 28t31.5 83h75z" />
    <glyph glyph-name="uni0080" horiz-adv-x="1243" 
d="M848 655l-33 -63h-444v-56q9 -265 91.5 -389t248.5 -124q58 0 114 20t172 94l101 350h59l-43 -448q-126 -46 -212 -62t-189 -16q-265 0 -391.5 131t-141.5 438q0 10 -1 30t-1 32h-178l12 63h164v64q0 59 0.5 87t1.5 52h-178l12 64h168q1 13 2 38.5t2 38.5q24 265 152 394
t364 129q106 0 200.5 -16.5t205.5 -55.5l22 -377h-65l-59 279q-67 57 -139.5 84.5t-155.5 27.5q-167 0 -243.5 -109t-90.5 -365q-1 -12 -1.5 -26t-0.5 -42h592l-33 -64h-561q0 -15 -1 -47.5t-1 -48.5q0 -17 1 -52.5t1 -54.5h477z" />
    <glyph glyph-name="uni0080" unicode="&#x20ac;" horiz-adv-x="1243" 
d="M848 655l-33 -63h-444v-56q9 -265 91.5 -389t248.5 -124q58 0 114 20t172 94l101 350h59l-43 -448q-126 -46 -212 -62t-189 -16q-265 0 -391.5 131t-141.5 438q0 10 -1 30t-1 32h-178l12 63h164v64q0 59 0.5 87t1.5 52h-178l12 64h168q1 13 2 38.5t2 38.5q24 265 152 394
t364 129q106 0 200.5 -16.5t205.5 -55.5l22 -377h-65l-59 279q-67 57 -139.5 84.5t-155.5 27.5q-167 0 -243.5 -109t-90.5 -365q-1 -12 -1.5 -26t-0.5 -42h592l-33 -64h-561q0 -15 -1 -47.5t-1 -48.5q0 -17 1 -52.5t1 -54.5h477z" />
    <glyph glyph-name="uni00A0" unicode="&#xa0;" horiz-adv-x="1272" 
 />
    <glyph glyph-name="exclamdown" unicode="&#xa1;" horiz-adv-x="635" 
d="M412 82l88 -25v-57h-363v57l88 25l54 1083h81zM203 1407q0 61 26 88t86 27q59 0 87 -27t28 -84q0 -59 -26.5 -87t-84.5 -28t-87 28t-29 83z" />
    <glyph glyph-name="cent" unicode="&#xa2;" horiz-adv-x="1124" 
d="M637 1208h-14q-159 0 -237.5 -115.5t-78.5 -347.5q0 -173 51.5 -266t161.5 -119zM987 414q-84 -86 -186 -131t-221 -50l-37 -272h-78l39 277q-193 19 -288 147t-95 369q0 252 131 380.5t393 133.5l33 233h80l-35 -239q60 -7 118.5 -20.5t114.5 -35.5v-344h-63l-33 246
q-32 34 -68 56t-77 34l-119 -844q102 2 198.5 36t192.5 104v-80z" />
    <glyph glyph-name="sterling" unicode="&#xa3;" horiz-adv-x="1206" 
d="M1110 432l-39 -432h-840l-43 49q92 97 145.5 221t53.5 232q0 77 -11 150.5t-34 144.5h-215v63h195q-32 103 -47 175t-15 124q0 178 120 270.5t351 92.5q96 0 172 -14.5t137 -43.5v-334h-65l-39 242q-24 49 -74.5 69.5t-154.5 20.5q-146 0 -211.5 -60t-65.5 -194
q0 -66 17.5 -150.5t54.5 -197.5h323v-63h-305q17 -48 26 -103.5t9 -113.5q0 -93 -50 -197t-153 -225h625l70 274h63z" />
    <glyph glyph-name="currency" unicode="&#xa4;" horiz-adv-x="1243" 
d="M848 655l-33 -63h-444v-56q9 -265 91.5 -389t248.5 -124q58 0 114 20t172 94l101 350h59l-43 -448q-126 -46 -212 -62t-189 -16q-265 0 -391.5 131t-141.5 438q0 10 -1 30t-1 32h-178l12 63h164v64q0 59 0.5 87t1.5 52h-178l12 64h168q1 13 2 38.5t2 38.5q24 265 152 394
t364 129q106 0 200.5 -16.5t205.5 -55.5l22 -377h-65l-59 279q-67 57 -139.5 84.5t-155.5 27.5q-167 0 -243.5 -109t-90.5 -365q-1 -12 -1.5 -26t-0.5 -42h592l-33 -64h-561q0 -15 -1 -47.5t-1 -48.5q0 -17 1 -52.5t1 -54.5h477z" />
    <glyph glyph-name="yen" unicode="&#xa5;" horiz-adv-x="1249" 
d="M1198 655v-63h-483v-510l211 -25v-57h-600v57l213 25v510h-488v63h488v19l-97 184h-391v64h359l-256 489l-142 25v57h494v-57l-158 -25l332 -661l328 661l-148 25v57h373v-57l-148 -25l-247 -489h360v-64h-393l-90 -180v-23h483z" />
    <glyph glyph-name="brokenbar" unicode="&#xa6;" 
d="M367 -332h-109v731h109v-731zM367 674h-109v731h109v-731z" />
    <glyph glyph-name="section" unicode="&#xa7;" horiz-adv-x="1024" 
d="M641 393q64 10 100.5 64.5t36.5 142.5q0 130 -66 190.5t-356 137.5q-65 -23 -95 -77t-30 -146q0 -115 83 -181t327 -131zM690 1380q-10 36 -57 60t-109 24q-104 0 -152 -46.5t-48 -147.5q0 -158 215 -224q33 -10 51 -16q216 -68 285 -146t69 -222q0 -115 -56 -185.5
t-181 -111.5q91 -53 127 -114t36 -159q0 -142 -99 -217.5t-286 -75.5q-78 0 -155 12t-154 35l-24 306h67q39 -188 92 -239.5t191 -51.5q106 0 152 44t46 144q0 86 -47 133t-215 101q-227 72 -298.5 150.5t-71.5 219.5q0 114 54.5 185.5t174.5 115.5q-73 31 -108 95t-35 165
q0 158 95 233t296 75q52 0 113 -11.5t133 -33.5l24 -314h-67z" />
    <glyph glyph-name="dieresis" unicode="&#xa8;" horiz-adv-x="1024" 
d="M463 1245q0 -42 -27.5 -71t-66.5 -29q-42 0 -71.5 28t-29.5 68t28.5 69t68.5 29t69 -27.5t29 -66.5zM756 1245q0 -41 -28.5 -70.5t-68.5 -29.5q-41 0 -69.5 28t-28.5 68t28.5 69t67.5 29q41 0 70 -27.5t29 -66.5z" />
    <glyph glyph-name="copyright" unicode="&#xa9;" horiz-adv-x="1724" 
d="M1085 1114q-49 37 -97 55.5t-95 18.5q-154 0 -234.5 -114t-80.5 -331q0 -213 79.5 -325.5t229.5 -112.5q53 0 106.5 17t110.5 53l33 223h63v-287q-83 -33 -159.5 -50t-145.5 -17q-234 0 -364 132t-130 369q0 235 132.5 369.5t361.5 134.5q73 0 144 -15.5t143 -47.5v-285
h-64zM862 1470q-148 0 -280 -54t-236 -159q-104 -104 -158.5 -236t-54.5 -280t54.5 -280t158.5 -236t236 -158.5t280 -54.5t280 54.5t236 158.5t158.5 236t54.5 280q0 147 -54.5 280t-158.5 236q-103 104 -236 158.5t-280 54.5zM1642 741q0 -155 -58.5 -296t-170.5 -255
q-110 -112 -251 -170.5t-300 -58.5q-157 0 -298 58.5t-253 170.5q-112 113 -170.5 253.5t-58.5 297.5t58.5 298t170.5 253t253 171t298 59t298 -59t253 -171q111 -111 170 -253t59 -298z" />
    <glyph glyph-name="ordfeminine" unicode="&#xaa;" horiz-adv-x="870" 
d="M563 1171h-184q-91 0 -126.5 -34t-35.5 -121q0 -59 36.5 -90t104.5 -31q104 0 154.5 60.5t50.5 185.5v30zM569 825v115q-43 -73 -101 -107t-138 -34q-120 0 -187 57t-67 160q0 110 78.5 160.5t251.5 50.5h157v43q0 83 -40.5 123.5t-123.5 40.5q-66 0 -124.5 -17.5
t-127.5 -58.5v63q64 52 130 76.5t141 24.5q152 0 215 -60.5t63 -206.5v-356l113 -16v-58h-240z" />
    <glyph glyph-name="guillemotleft" unicode="&#xab;" horiz-adv-x="973" 
d="M848 924l43 -33l-264 -404l264 -403l-43 -33l-389 436zM500 924l43 -33l-264 -404l264 -403l-43 -33l-389 436z" />
    <glyph glyph-name="logicalnot" unicode="&#xac;" horiz-adv-x="1249" 
d="M1112 203h-108v432h-867v110h975v-542z" />
    <glyph glyph-name="uni00AD" unicode="&#xad;" 
d="M516 426h-410v139h410v-139z" />
    <glyph glyph-name="registered" unicode="&#xae;" horiz-adv-x="580" 
d="M293 1481q-89 0 -150 -61.5t-61 -149.5t61.5 -149.5t149.5 -61.5q87 0 149 61.5t62 149.5q0 87 -62 149t-149 62zM293 1522q104 0 178 -74t74 -178q0 -105 -74 -178.5t-178 -73.5q-106 0 -179 73t-73 179q0 105 73 178.5t179 73.5zM201 1395h90q53 0 78.5 -18t25.5 -54
q0 -25 -11.5 -40.5t-38.5 -26.5l52 -111h-57l-49 98h-37v-98h-53v250zM254 1354v-70h37q26 0 38.5 8.5t12.5 26.5q0 19 -12 27t-41 8h-35z" />
    <glyph glyph-name="macron" unicode="&#xaf;" horiz-adv-x="1024" 
d="M805 1180h-586v127h586v-127z" />
    <glyph glyph-name="degree" unicode="&#xb0;" horiz-adv-x="905" 
d="M670 1233q0 89 -64 153t-153 64q-90 0 -153.5 -63.5t-63.5 -153.5q0 -91 63 -154t154 -63q89 0 153 64t64 153zM741 1233q0 -121 -84 -205t-204 -84q-122 0 -205.5 84t-83.5 205q0 120 84 204.5t205 84.5q119 0 203.5 -84.5t84.5 -204.5z" />
    <glyph glyph-name="plusminus" unicode="&#xb1;" horiz-adv-x="1249" 
d="M1112 51h-975v109h975v-109zM1112 578h-434v-297h-109v297h-432v108h432v297h109v-297h434v-108z" />
    <glyph glyph-name="uni00B2" unicode="&#xb2;" horiz-adv-x="963" 
d="M807 457h-696v90q318 216 430 356.5t112 298.5q0 131 -53.5 196.5t-159.5 65.5q-64 0 -107 -16t-69 -49l-16 -21l-31 -194h-61v268q4 2 12 5q152 65 272 65q175 0 269 -84.5t94 -241.5q0 -135 -96 -255.5t-428 -352.5h432l53 184h61z" />
    <glyph glyph-name="uni00B3" unicode="&#xb3;" horiz-adv-x="946" 
d="M578 993q126 -20 180.5 -80t54.5 -180q0 -160 -95 -231.5t-308 -71.5q-80 0 -152.5 9.5t-140.5 29.5v231h61l31 -153q42 -32 90.5 -46t136.5 -14q120 0 177 60t57 186q0 123 -65.5 173t-229.5 50q-35 0 -54 -0.5t-34 -0.5v69h149q96 0 148.5 59t52.5 166q0 113 -48 164
t-153 51q-73 0 -113.5 -16t-78.5 -55l-31 -158h-61v231q83 31 148.5 43.5t135.5 12.5q164 0 249 -69t85 -202q0 -91 -48 -156t-144 -102z" />
    <glyph glyph-name="acute" unicode="&#xb4;" horiz-adv-x="1024" 
d="M434 1083h-59l204 315q11 16 28 26t34 10q28 0 46 -19.5t18 -48.5q0 -13 -5.5 -26t-13.5 -21z" />
    <glyph glyph-name="mu" unicode="&#xb5;" horiz-adv-x="1235" 
d="M393 967l-76 -539q-4 -27 -6 -53.5t-2 -52.5q0 -111 49.5 -166.5t147.5 -55.5q127 0 217 115.5t119 316.5l61 435h160l-119 -838l35 -43l151 -25l-8 -61h-202q-54 0 -84.5 59t-34.5 170q-56 -125 -131 -186t-174 -61q-109 0 -169 61.5t-75 189.5l-59 -692h-160l200 1426
h160z" />
    <glyph glyph-name="paragraph" unicode="&#xb6;" horiz-adv-x="1116" 
d="M786 -127v1538h-104v-1538h104zM1014 -209h-553v57l153 25v803h-20q-279 0 -395.5 93t-116.5 312q0 230 128 321t480 91h324v-57l-160 -25v-1538l160 -25v-57z" />
    <glyph glyph-name="periodcentered" unicode="&#xb7;" 
d="M193 813q0 50 34.5 84.5t83.5 34.5t84 -35t35 -84t-35 -84t-84 -35t-83.5 34.5t-34.5 84.5z" />
    <glyph glyph-name="cedilla" unicode="&#xb8;" horiz-adv-x="1024" 
d="M489 0h56l-33 -143q98 0 149.5 -44.5t51.5 -127.5q0 -82 -56.5 -125t-164.5 -43q-59 0 -109.5 11.5t-89.5 33.5l29 55q39 -17 79 -25t91 -8q76 0 109.5 23.5t33.5 77.5q0 52 -38.5 78t-115.5 26q-10 0 -19.5 -0.5t-21.5 -1.5z" />
    <glyph glyph-name="uni00B9" unicode="&#xb9;" horiz-adv-x="772" 
d="M154 457v55l188 16v865l-211 -76l-22 45l309 160h63v-994l189 -16v-55h-516z" />
    <glyph glyph-name="ordmasculine" unicode="&#xba;" horiz-adv-x="936" 
d="M463 1466q-120 0 -180 -78t-60 -235q0 -144 64 -221.5t182 -77.5q115 0 179.5 86.5t64.5 241.5q0 134 -66 209t-184 75zM858 1174q0 -181 -100.5 -278t-288.5 -97q-192 0 -291.5 90t-99.5 264q0 182 97.5 275.5t287.5 93.5q193 0 294 -89t101 -259z" />
    <glyph glyph-name="guillemotright" unicode="&#xbb;" horiz-adv-x="973" 
d="M514 487l-389 -436l-43 33l264 403l-264 404l43 33zM862 487l-389 -436l-43 33l264 403l-264 404l43 33z" />
    <glyph glyph-name="onequarter" unicode="&#xbc;" horiz-adv-x="2157" 
d="M154 457v55l188 16v865l-211 -76l-22 45l309 160h63v-994l189 -16v-55h-516zM1679 1522l-1134 -1561h-129l1136 1561h127zM1688 874l-402 -524l402 19v505zM1821 268v-196l188 -17v-55h-510v55l189 17v196h-484v70l557 727h60v-692l260 12v-117h-260z" />
    <glyph glyph-name="onehalf" unicode="&#xbd;" horiz-adv-x="2157" 
d="M154 457v55l188 16v865l-211 -76l-22 45l309 160h63v-994l189 -16v-55h-516zM1614 1522l-1135 -1561h-129l1137 1561h127zM2001 0h-696v90q316 214 429 356t113 299q0 132 -53 197.5t-160 65.5q-64 0 -106.5 -16t-69.5 -50l-16 -20l-31 -195h-61v268q4 2 13 6
q151 64 271 64q174 0 268.5 -84.5t94.5 -241.5q0 -133 -93 -251t-431 -359h432l53 186h61z" />
    <glyph glyph-name="threequarters" unicode="&#xbe;" horiz-adv-x="2361" 
d="M578 993q126 -20 180.5 -80t54.5 -180q0 -160 -95 -231.5t-308 -71.5q-80 0 -152.5 9.5t-140.5 29.5v231h61l31 -153q42 -32 90.5 -46t136.5 -14q120 0 177 60t57 186q0 123 -65.5 173t-229.5 50q-35 0 -54 -0.5t-34 -0.5v67h149q95 0 148 60t53 167q0 113 -48 164
t-153 51q-73 0 -113.5 -16t-78.5 -55l-31 -158h-61v231q83 31 148.5 43.5t135.5 12.5q164 0 249 -69t85 -202q0 -91 -48 -156t-144 -102zM1808 1522l-1134 -1561h-129l1136 1561h127zM1892 874l-401 -524l401 19v505zM2025 268v-196l189 -17v-55h-510v55l188 17v196h-483v70
l557 727h59v-692l261 12v-117h-261z" />
    <glyph glyph-name="questiondown" unicode="&#xbf;" horiz-adv-x="1018" 
d="M494 1407q0 61 26 88t86 27q59 0 87 -27t28 -84q0 -59 -26.5 -87t-84.5 -28t-87 28t-29 83zM612 731q-163 0 -241 -78t-78 -243q0 -209 66 -298t219 -89q71 0 129 24t108 74l33 246h63v-342q-83 -33 -167 -48.5t-175 -15.5q-224 0 -338 112t-114 330q0 202 113.5 311.5
t332.5 116.5l6 324h74l8 -424h-39z" />
    <glyph glyph-name="Agrave" unicode="&#xc0;" horiz-adv-x="1528" 
d="M985 575l-293 705l-282 -705h575zM1528 0h-494v57l156 25l-182 434h-621l-172 -434l147 -25v-57h-372v57l147 25l563 1413h93l591 -1413l144 -25v-57zM887 1609h-59l-252 236q-10 9 -14.5 20.5t-4.5 26.5q0 29 18 48.5t46 19.5q17 0 34.5 -10t26.5 -25z" />
    <glyph glyph-name="Aacute" unicode="&#xc1;" horiz-adv-x="1528" 
d="M985 575l-293 705l-282 -705h575zM1528 0h-494v57l156 25l-182 434h-621l-172 -434l147 -25v-57h-372v57l147 25l563 1413h93l591 -1413l144 -25v-57zM672 1609h-59l204 315q11 16 28 26t34 10q28 0 46 -19.5t18 -48.5q0 -13 -5.5 -26t-13.5 -21z" />
    <glyph glyph-name="Acircumflex" unicode="&#xc2;" horiz-adv-x="1528" 
d="M985 575l-293 705l-282 -705h575zM1528 0h-494v57l156 25l-182 434h-621l-172 -434l147 -25v-57h-372v57l147 25l563 1413h93l591 -1413l144 -25v-57zM1043 1609h-60l-233 234l-233 -234h-60l225 351h136z" />
    <glyph glyph-name="Atilde" unicode="&#xc3;" horiz-adv-x="1528" 
d="M985 575l-293 705l-282 -705h575zM1528 0h-494v57l156 25l-182 434h-621l-172 -434l147 -25v-57h-372v57l147 25l563 1413h93l591 -1413l144 -25v-57zM1043 1863q-3 -87 -51.5 -136.5t-130.5 -49.5q-51 0 -130.5 36t-115.5 36q-41 0 -64.5 -19.5t-33.5 -62.5h-60
q2 87 50.5 136.5t131.5 49.5q53 0 137.5 -37t123.5 -37q37 0 57.5 20.5t26.5 63.5h59z" />
    <glyph glyph-name="Adieresis" unicode="&#xc4;" horiz-adv-x="1528" 
d="M985 575l-293 705l-282 -705h575zM1528 0h-494v57l156 25l-182 434h-621l-172 -434l147 -25v-57h-372v57l147 25l563 1413h93l591 -1413l144 -25v-57zM701 1771q0 -42 -27.5 -71t-66.5 -29q-42 0 -71.5 28t-29.5 68t28.5 69t68.5 29t69 -27.5t29 -66.5zM994 1771
q0 -41 -28.5 -70.5t-68.5 -29.5q-41 0 -69.5 28t-28.5 68t28.5 69t67.5 29q41 0 70 -27.5t29 -66.5z" />
    <glyph glyph-name="Aring" unicode="&#xc5;" horiz-adv-x="1528" 
d="M889 1651q0 58 -41.5 99.5t-99.5 41.5q-59 0 -100.5 -41t-41.5 -100q0 -57 40.5 -93t101.5 -36q60 0 100.5 36t40.5 93zM680 1444q-42 0 -97 64.5t-55 142.5q0 91 64 155t156 64q90 0 154.5 -64.5t64.5 -154.5q0 -80 -57 -143.5t-97 -63.5l571 -1362l144 -25v-57h-494v57
l156 25l-182 434h-621l-172 -434l147 -25v-57h-372v57l147 25zM985 575l-293 705l-282 -705h575z" />
    <glyph glyph-name="AE" unicode="&#xc6;" horiz-adv-x="1962" 
d="M930 516h-520l-248 -434l147 -25v-57h-377v57l146 25l772 1329l-184 25v57h1108l22 -377h-65l-74 318h-551v-576h401l45 234h58v-531h-58l-45 238h-401v-740h584l118 390h60l-43 -449h-1075v57l180 25v434zM442 575h488v859z" />
    <glyph glyph-name="Ccedilla" unicode="&#xc7;" horiz-adv-x="1567" 
d="M840 -39l-25 -104q99 0 150 -43.5t51 -128.5q0 -82 -56.5 -125t-164.5 -43q-59 0 -109 11.5t-90 33.5l29 55q33 -17 74 -25t96 -8q75 0 109 24t34 77q0 50 -36.5 77t-102.5 27q-13 0 -26.5 -0.5t-29.5 -1.5l41 176q-351 22 -524.5 210t-173.5 546q0 440 183.5 621.5
t629.5 181.5q122 0 246 -17.5t268 -54.5l23 -377h-66l-59 279q-78 55 -183 83.5t-231 28.5q-314 0 -463 -177.5t-149 -553.5q0 -350 149 -530t438 -180q104 0 207 27t226 87l100 350h59l-43 -448q-113 -39 -248 -58.5t-290 -19.5h-43z" />
    <glyph glyph-name="Egrave" unicode="&#xc8;" horiz-adv-x="1298" 
d="M1206 449l-43 -449h-1077v57l180 25v1329l-180 25v57h1024l23 -377h-66l-74 318h-551v-596h402l45 233h57v-530h-57l-45 237h-402v-719h584l119 390h61zM786 1609h-59l-252 236q-10 9 -14.5 20.5t-4.5 26.5q0 29 18 48.5t46 19.5q17 0 34.5 -10t26.5 -25z" />
    <glyph glyph-name="Eacute" unicode="&#xc9;" horiz-adv-x="1298" 
d="M1206 449l-43 -449h-1077v57l180 25v1329l-180 25v57h1024l23 -377h-66l-74 318h-551v-596h402l45 233h57v-530h-57l-45 237h-402v-719h584l119 390h61zM571 1609h-59l204 315q11 16 28 26t34 10q28 0 46 -19.5t18 -48.5q0 -13 -5.5 -26t-13.5 -21z" />
    <glyph glyph-name="Ecircumflex" unicode="&#xca;" horiz-adv-x="1298" 
d="M1206 449l-43 -449h-1077v57l180 25v1329l-180 25v57h1024l23 -377h-66l-74 318h-551v-596h402l45 233h57v-530h-57l-45 237h-402v-719h584l119 390h61zM942 1609h-60l-233 234l-233 -234h-60l225 351h136z" />
    <glyph glyph-name="Edieresis" unicode="&#xcb;" horiz-adv-x="1298" 
d="M1206 449l-43 -449h-1077v57l180 25v1329l-180 25v57h1024l23 -377h-66l-74 318h-551v-596h402l45 233h57v-530h-57l-45 237h-402v-719h584l119 390h61zM600 1771q0 -42 -27.5 -71t-66.5 -29q-42 0 -71.5 28t-29.5 68t28.5 69t68.5 29t69 -27.5t29 -66.5zM893 1771
q0 -41 -28.5 -70.5t-68.5 -29.5q-41 0 -69.5 28t-28.5 68t28.5 69t67.5 29q41 0 70 -27.5t29 -66.5z" />
    <glyph glyph-name="Igrave" unicode="&#xcc;" horiz-adv-x="709" 
d="M623 0h-537v57l180 25v1329l-180 25v57h537v-57l-181 -25v-1329l181 -25v-57zM492 1609h-59l-252 236q-10 9 -14.5 20.5t-4.5 26.5q0 29 18 48.5t46 19.5q17 0 34.5 -10t26.5 -25z" />
    <glyph glyph-name="Iacute" unicode="&#xcd;" horiz-adv-x="709" 
d="M623 0h-537v57l180 25v1329l-180 25v57h537v-57l-181 -25v-1329l181 -25v-57zM277 1609h-59l204 315q11 16 28 26t34 10q28 0 46 -19.5t18 -48.5q0 -13 -5.5 -26t-13.5 -21z" />
    <glyph glyph-name="Icircumflex" unicode="&#xce;" horiz-adv-x="709" 
d="M623 0h-537v57l180 25v1329l-180 25v57h537v-57l-181 -25v-1329l181 -25v-57zM648 1609h-60l-233 234l-233 -234h-60l225 351h136z" />
    <glyph glyph-name="Idieresis" unicode="&#xcf;" horiz-adv-x="709" 
d="M623 0h-537v57l180 25v1329l-180 25v57h537v-57l-181 -25v-1329l181 -25v-57zM306 1771q0 -42 -27.5 -71t-66.5 -29q-42 0 -71.5 28t-29.5 68t28.5 69t68.5 29t69 -27.5t29 -66.5zM599 1771q0 -41 -28.5 -70.5t-68.5 -29.5q-41 0 -69.5 28t-28.5 68t28.5 69t67.5 29
q41 0 70 -27.5t29 -66.5z" />
    <glyph glyph-name="Eth" unicode="&#xd0;" horiz-adv-x="1712" 
d="M895 848v-70h-461v-717h361q291 0 464 186.5t173 502.5q0 353 -152 518.5t-477 165.5h-369v-586h461zM260 848v563l-182 25v57h782q426 0 596 -163t170 -570q0 -384 -203 -572t-618 -188h-727v57l182 25v696h-260v70h260z" />
    <glyph glyph-name="Ntilde" unicode="&#xd1;" horiz-adv-x="1655" 
d="M1577 1436l-178 -25v-1413h-27l-1036 1255v-1171l180 -25v-57h-428v57l178 25v1249l-67 82l-113 21v59h287l958 -1143v1061l-182 25v57h428v-57zM1090 1863q-3 -87 -51.5 -136.5t-130.5 -49.5q-51 0 -130.5 36t-115.5 36q-41 0 -64.5 -19.5t-33.5 -62.5h-60
q2 87 50.5 136.5t131.5 49.5q53 0 137.5 -37t123.5 -37q37 0 57.5 20.5t26.5 63.5h59z" />
    <glyph glyph-name="Ograve" unicode="&#xd2;" horiz-adv-x="1733" 
d="M285 715q0 -337 151 -514.5t436 -177.5q259 0 419.5 200t160.5 527q0 341 -150 527.5t-423 186.5q-300 0 -447 -185t-147 -564zM883 -39q-403 0 -600 187.5t-197 570.5q0 410 194 606.5t601 196.5q388 0 577 -187.5t189 -574.5q0 -379 -201.5 -589t-562.5 -210z
M1003 1609h-59l-252 236q-10 9 -14.5 20.5t-4.5 26.5q0 29 18 48.5t46 19.5q17 0 34.5 -10t26.5 -25z" />
    <glyph glyph-name="Oacute" unicode="&#xd3;" horiz-adv-x="1733" 
d="M285 715q0 -337 151 -514.5t436 -177.5q259 0 419.5 200t160.5 527q0 341 -150 527.5t-423 186.5q-300 0 -447 -185t-147 -564zM883 -39q-403 0 -600 187.5t-197 570.5q0 410 194 606.5t601 196.5q388 0 577 -187.5t189 -574.5q0 -379 -201.5 -589t-562.5 -210zM788 1609
h-59l204 315q11 16 28 26t34 10q28 0 46 -19.5t18 -48.5q0 -13 -5.5 -26t-13.5 -21z" />
    <glyph glyph-name="Ocircumflex" unicode="&#xd4;" horiz-adv-x="1733" 
d="M285 715q0 -337 151 -514.5t436 -177.5q259 0 419.5 200t160.5 527q0 341 -150 527.5t-423 186.5q-300 0 -447 -185t-147 -564zM883 -39q-403 0 -600 187.5t-197 570.5q0 410 194 606.5t601 196.5q388 0 577 -187.5t189 -574.5q0 -379 -201.5 -589t-562.5 -210z
M1159 1609h-60l-233 234l-233 -234h-60l225 351h136z" />
    <glyph glyph-name="Otilde" unicode="&#xd5;" horiz-adv-x="1733" 
d="M285 715q0 -337 151 -514.5t436 -177.5q259 0 419.5 200t160.5 527q0 341 -150 527.5t-423 186.5q-300 0 -447 -185t-147 -564zM883 -39q-403 0 -600 187.5t-197 570.5q0 410 194 606.5t601 196.5q388 0 577 -187.5t189 -574.5q0 -379 -201.5 -589t-562.5 -210z
M1159 1863q-3 -87 -51.5 -136.5t-130.5 -49.5q-51 0 -130.5 36t-115.5 36q-41 0 -64.5 -19.5t-33.5 -62.5h-60q2 87 50.5 136.5t131.5 49.5q53 0 137.5 -37t123.5 -37q37 0 57.5 20.5t26.5 63.5h59z" />
    <glyph glyph-name="Odieresis" unicode="&#xd6;" horiz-adv-x="1733" 
d="M285 715q0 -337 151 -514.5t436 -177.5q259 0 419.5 200t160.5 527q0 341 -150 527.5t-423 186.5q-300 0 -447 -185t-147 -564zM883 -39q-403 0 -600 187.5t-197 570.5q0 410 194 606.5t601 196.5q388 0 577 -187.5t189 -574.5q0 -379 -201.5 -589t-562.5 -210zM817 1771
q0 -42 -27.5 -71t-66.5 -29q-42 0 -71.5 28t-29.5 68t28.5 69t68.5 29t69 -27.5t29 -66.5zM1110 1771q0 -41 -28.5 -70.5t-68.5 -29.5q-41 0 -69.5 28t-28.5 68t28.5 69t67.5 29q41 0 70 -27.5t29 -66.5z" />
    <glyph glyph-name="multiply" unicode="&#xd7;" horiz-adv-x="1249" 
d="M1067 131l-78 -78l-364 365l-365 -365l-78 78l365 365l-365 364l78 78l365 -365l364 365l78 -78l-365 -364z" />
    <glyph glyph-name="Oslash" unicode="&#xd8;" horiz-adv-x="1733" 
d="M1298 1282q-82 94 -183 138t-236 44q-300 0 -447 -185t-147 -564q0 -137 28.5 -251.5t87.5 -215.5zM442 195q90 -89 191.5 -130.5t226.5 -41.5q270 0 431 198t161 533q0 130 -28 246.5t-85 224.5zM1446 1348q100 -92 150.5 -240t50.5 -348q0 -386 -203.5 -592.5
t-581.5 -206.5q-143 0 -268 32.5t-240 98.5l-223 -258l-51 45l221 254q-112 109 -163.5 249.5t-51.5 336.5q0 410 194 606.5t601 196.5q159 0 282 -32t230 -99l190 217l51 -43z" />
    <glyph glyph-name="Ugrave" unicode="&#xd9;" horiz-adv-x="1585" 
d="M1520 1436l-181 -25v-883q0 -282 -136.5 -424.5t-409.5 -142.5q-283 0 -414 138.5t-131 435.5v876l-182 25v57h536v-57l-178 -25v-811q0 -265 100.5 -386.5t319.5 -121.5q218 0 323 114t105 349v856l-182 25v57h430v-57zM944 1609h-59l-252 236q-10 9 -14.5 20.5
t-4.5 26.5q0 29 18 48.5t46 19.5q17 0 34.5 -10t26.5 -25z" />
    <glyph glyph-name="Uacute" unicode="&#xda;" horiz-adv-x="1585" 
d="M1520 1436l-181 -25v-883q0 -282 -136.5 -424.5t-409.5 -142.5q-283 0 -414 138.5t-131 435.5v876l-182 25v57h536v-57l-178 -25v-811q0 -265 100.5 -386.5t319.5 -121.5q218 0 323 114t105 349v856l-182 25v57h430v-57zM729 1609h-59l204 315q11 16 28 26t34 10
q28 0 46 -19.5t18 -48.5q0 -13 -5.5 -26t-13.5 -21z" />
    <glyph glyph-name="Ucircumflex" unicode="&#xdb;" horiz-adv-x="1585" 
d="M1520 1436l-181 -25v-883q0 -282 -136.5 -424.5t-409.5 -142.5q-283 0 -414 138.5t-131 435.5v876l-182 25v57h536v-57l-178 -25v-811q0 -265 100.5 -386.5t319.5 -121.5q218 0 323 114t105 349v856l-182 25v57h430v-57zM1100 1609h-60l-233 234l-233 -234h-60l225 351
h136z" />
    <glyph glyph-name="Udieresis" unicode="&#xdc;" horiz-adv-x="1585" 
d="M1520 1436l-181 -25v-883q0 -282 -136.5 -424.5t-409.5 -142.5q-283 0 -414 138.5t-131 435.5v876l-182 25v57h536v-57l-178 -25v-811q0 -265 100.5 -386.5t319.5 -121.5q218 0 323 114t105 349v856l-182 25v57h430v-57zM758 1771q0 -42 -27.5 -71t-66.5 -29
q-42 0 -71.5 28t-29.5 68t28.5 69t68.5 29t69 -27.5t29 -66.5zM1051 1771q0 -41 -28.5 -70.5t-68.5 -29.5q-41 0 -69.5 28t-28.5 68t28.5 69t67.5 29q41 0 70 -27.5t29 -66.5z" />
    <glyph glyph-name="Yacute" unicode="&#xdd;" horiz-adv-x="1333" 
d="M1315 1436l-148 -25l-411 -733v-596l211 -25v-57h-600v57l213 25v592l-426 737l-142 25v57h494v-57l-158 -25l373 -661l369 661l-148 25v57h373v-57zM616 1609h-59l204 315q11 16 28 26t34 10q28 0 46 -19.5t18 -48.5q0 -13 -5.5 -26t-13.5 -21z" />
    <glyph glyph-name="Thorn" unicode="&#xde;" horiz-adv-x="1257" 
d="M563 1227q353 0 480.5 -91t127.5 -321q0 -218 -136.5 -313.5t-452.5 -95.5q-44 0 -138 3q-8 0 -12 1v-328l180 -25v-57h-534v57l180 25v1329l-180 25v57h534v-57l-180 -25v-184h131zM432 1167v-700h174q209 0 295 78.5t86 267.5q0 182 -107 268t-335 86h-113z" />
    <glyph glyph-name="germandbls" unicode="&#xdf;" horiz-adv-x="1186" 
d="M723 1092q4 24 6 48t2 46q0 120 -53.5 199t-130.5 79q-104 0 -143 -77.5t-39 -399.5v-24v-963h-304v57l144 27v827h-144v54h144v86q0 229 87.5 350t254.5 121q129 0 219 -84.5t90 -204.5q0 -62 -11.5 -111t-35.5 -86q-91 0 -141 -37.5t-50 -105.5q0 -58 43.5 -110.5
t196.5 -153.5q137 -90 188.5 -163.5t51.5 -168.5q0 -165 -86.5 -250.5t-253.5 -85.5q-70 0 -140 15t-145 47v305h62l34 -211q47 -54 93.5 -75.5t123.5 -21.5q82 0 124 50.5t42 148.5q0 72 -36.5 128t-129.5 122q-6 4 -17 12q-275 194 -275 355q0 104 58 169t171 87z" />
    <glyph glyph-name="agrave" unicode="&#xe0;" horiz-adv-x="1104" 
d="M737 508h-264q-127 0 -179 -54t-52 -184q0 -92 52.5 -141t151.5 -49q148 0 219.5 91.5t71.5 279.5v57zM1053 0h-308v205q-59 -126 -141 -185t-198 -59q-159 0 -247.5 81.5t-88.5 225.5q0 156 104.5 226.5t337.5 70.5h225v74q0 128 -58 190t-177 62q-90 0 -166 -24
t-168 -81v68q83 73 170.5 107t187.5 34q205 0 289 -85.5t84 -293.5v-530l154 -25v-61zM680 1083h-59l-252 236q-10 9 -14.5 20.5t-4.5 26.5q0 29 18 48.5t46 19.5q17 0 34.5 -10t26.5 -25z" />
    <glyph glyph-name="aacute" unicode="&#xe1;" horiz-adv-x="1104" 
d="M737 508h-264q-127 0 -179 -54t-52 -184q0 -92 52.5 -141t151.5 -49q148 0 219.5 91.5t71.5 279.5v57zM1053 0h-308v205q-59 -126 -141 -185t-198 -59q-159 0 -247.5 81.5t-88.5 225.5q0 156 104.5 226.5t337.5 70.5h225v74q0 128 -58 190t-177 62q-90 0 -166 -24
t-168 -81v68q83 73 170.5 107t187.5 34q205 0 289 -85.5t84 -293.5v-530l154 -25v-61zM465 1083h-59l204 315q11 16 28 26t34 10q28 0 46 -19.5t18 -48.5q0 -13 -5.5 -26t-13.5 -21z" />
    <glyph glyph-name="acircumflex" unicode="&#xe2;" horiz-adv-x="1104" 
d="M737 508h-264q-127 0 -179 -54t-52 -184q0 -92 52.5 -141t151.5 -49q148 0 219.5 91.5t71.5 279.5v57zM1053 0h-308v205q-59 -126 -141 -185t-198 -59q-159 0 -247.5 81.5t-88.5 225.5q0 156 104.5 226.5t337.5 70.5h225v74q0 128 -58 190t-177 62q-90 0 -166 -24
t-168 -81v68q83 73 170.5 107t187.5 34q205 0 289 -85.5t84 -293.5v-530l154 -25v-61zM836 1083h-60l-233 234l-233 -234h-60l225 351h136z" />
    <glyph glyph-name="atilde" unicode="&#xe3;" horiz-adv-x="1104" 
d="M737 508h-264q-127 0 -179 -54t-52 -184q0 -92 52.5 -141t151.5 -49q148 0 219.5 91.5t71.5 279.5v57zM1053 0h-308v205q-59 -126 -141 -185t-198 -59q-159 0 -247.5 81.5t-88.5 225.5q0 156 104.5 226.5t337.5 70.5h225v74q0 128 -58 190t-177 62q-90 0 -166 -24
t-168 -81v68q83 73 170.5 107t187.5 34q205 0 289 -85.5t84 -293.5v-530l154 -25v-61zM836 1337q-3 -87 -51.5 -136.5t-130.5 -49.5q-51 0 -130.5 36t-115.5 36q-41 0 -64.5 -19.5t-33.5 -62.5h-60q2 87 50.5 136.5t131.5 49.5q53 0 137.5 -37t123.5 -37q37 0 57.5 20.5
t26.5 63.5h59z" />
    <glyph glyph-name="adieresis" unicode="&#xe4;" horiz-adv-x="1104" 
d="M737 508h-264q-127 0 -179 -54t-52 -184q0 -92 52.5 -141t151.5 -49q148 0 219.5 91.5t71.5 279.5v57zM1053 0h-308v205q-59 -126 -141 -185t-198 -59q-159 0 -247.5 81.5t-88.5 225.5q0 156 104.5 226.5t337.5 70.5h225v74q0 128 -58 190t-177 62q-90 0 -166 -24
t-168 -81v68q83 73 170.5 107t187.5 34q205 0 289 -85.5t84 -293.5v-530l154 -25v-61zM494 1245q0 -42 -27.5 -71t-66.5 -29q-42 0 -71.5 28t-29.5 68t28.5 69t68.5 29t69 -27.5t29 -66.5zM787 1245q0 -41 -28.5 -70.5t-68.5 -29.5q-41 0 -69.5 28t-28.5 68t28.5 69t67.5 29
q41 0 70 -27.5t29 -66.5z" />
    <glyph glyph-name="aring" unicode="&#xe5;" horiz-adv-x="1102" 
d="M670 1303q0 58 -42 100.5t-100 42.5t-99.5 -42t-41.5 -101q0 -60 40.5 -100t100.5 -40t101 40.5t41 99.5zM748 1303q0 -91 -64 -154.5t-156 -63.5t-155.5 63.5t-63.5 154.5t64.5 156t154.5 65q91 0 155.5 -65t64.5 -156zM737 508h-264q-127 0 -179 -54t-52 -184
q0 -92 52.5 -141t151.5 -49q148 0 219.5 91.5t71.5 279.5v57zM1053 0h-308v205q-59 -126 -141 -185t-198 -59q-159 0 -247.5 81.5t-88.5 225.5q0 156 104.5 226.5t337.5 70.5h225v74q0 128 -58 190t-177 62q-90 0 -166 -24t-168 -81v68q83 73 170.5 107t187.5 34
q205 0 289 -85.5t84 -293.5v-530l154 -25v-61z" />
    <glyph glyph-name="ae" unicode="&#xe6;" horiz-adv-x="1681" 
d="M737 508h-264q-127 0 -179 -54t-52 -184q0 -93 52.5 -142.5t151.5 -49.5q147 0 219 92t72 281v57zM745 205q-43 -120 -129 -182t-210 -62q-159 0 -247.5 81.5t-88.5 225.5q0 161 111 229t386 68h170v74q0 128 -58 190t-177 62q-90 0 -166 -24t-168 -81v68
q85 74 170.5 107.5t187.5 33.5q128 0 203 -33.5t111 -107.5q56 71 142 106t204 35q207 0 314.5 -104.5t107.5 -306.5q0 -10 -3 -49q-1 -18 -1 -27h-711v-10q0 -214 68.5 -317t209.5 -103q98 0 195.5 29.5t202.5 91.5v-80q-97 -80 -197.5 -119t-210.5 -39q-169 0 -267.5 73.5
t-129.5 221.5zM1432 565q0 194 -61.5 283.5t-192.5 89.5q-137 0 -208 -94.5t-73 -277.5z" />
    <glyph glyph-name="ccedilla" unicode="&#xe7;" horiz-adv-x="1018" 
d="M573 -37l-24 -106q98 0 149.5 -44t51.5 -128q0 -82 -57 -125t-165 -43q-58 0 -108.5 11.5t-89.5 33.5l28 55q39 -17 78.5 -25t91.5 -8q77 0 110.5 23.5t33.5 77.5q0 50 -36.5 77t-103.5 27q-13 0 -26 -0.5t-29 -1.5l41 174q-224 4 -334 131t-110 383q0 251 131 385.5
t375 134.5q82 0 164 -15.5t165 -47.5v-342h-63l-33 246q-52 50 -109.5 74t-128.5 24q-161 0 -243 -116.5t-82 -346.5q0 -197 73.5 -293t225.5 -96q103 0 198 33.5t193 105.5v-80q-76 -75 -166.5 -119.5t-200.5 -58.5z" />
    <glyph glyph-name="egrave" unicode="&#xe8;" horiz-adv-x="1036" 
d="M788 565v10q0 186 -62 274.5t-191 88.5q-137 0 -208 -94.5t-73 -277.5zM961 508h-711v-10q0 -215 69 -319.5t209 -104.5q94 0 190.5 30.5t205.5 94.5v-80q-99 -80 -196.5 -119t-199.5 -39q-234 0 -344 126t-110 394q0 254 118.5 384t350.5 130q210 0 315 -106t105 -318
q0 -1 -1 -9q-1 -27 -1 -54zM680 1083h-59l-252 236q-10 9 -14.5 20.5t-4.5 26.5q0 29 18 48.5t46 19.5q17 0 34.5 -10t26.5 -25z" />
    <glyph glyph-name="eacute" unicode="&#xe9;" horiz-adv-x="1036" 
d="M788 565v10q0 186 -62 274.5t-191 88.5q-137 0 -208 -94.5t-73 -277.5zM961 508h-711v-10q0 -215 69 -319.5t209 -104.5q94 0 190.5 30.5t205.5 94.5v-80q-99 -80 -196.5 -119t-199.5 -39q-234 0 -344 126t-110 394q0 254 118.5 384t350.5 130q210 0 315 -106t105 -318
q0 -1 -1 -9q-1 -27 -1 -54zM465 1083h-59l204 315q11 16 28 26t34 10q28 0 46 -19.5t18 -48.5q0 -13 -5.5 -26t-13.5 -21z" />
    <glyph glyph-name="ecircumflex" unicode="&#xea;" horiz-adv-x="1036" 
d="M788 565v10q0 186 -62 274.5t-191 88.5q-137 0 -208 -94.5t-73 -277.5zM961 508h-711v-10q0 -215 69 -319.5t209 -104.5q94 0 190.5 30.5t205.5 94.5v-80q-99 -80 -196.5 -119t-199.5 -39q-234 0 -344 126t-110 394q0 254 118.5 384t350.5 130q210 0 315 -106t105 -318
q0 -1 -1 -9q-1 -27 -1 -54zM836 1083h-60l-233 234l-233 -234h-60l225 351h136z" />
    <glyph glyph-name="edieresis" unicode="&#xeb;" horiz-adv-x="1036" 
d="M788 565v10q0 186 -62 274.5t-191 88.5q-137 0 -208 -94.5t-73 -277.5zM961 508h-711v-10q0 -215 69 -319.5t209 -104.5q94 0 190.5 30.5t205.5 94.5v-80q-99 -80 -196.5 -119t-199.5 -39q-234 0 -344 126t-110 394q0 254 118.5 384t350.5 130q210 0 315 -106t105 -318
q0 -1 -1 -9q-1 -27 -1 -54zM494 1245q0 -42 -27.5 -71t-66.5 -29q-42 0 -71.5 28t-29.5 68t28.5 69t68.5 29t69 -27.5t29 -66.5zM787 1245q0 -41 -28.5 -70.5t-68.5 -29.5q-41 0 -69.5 28t-28.5 68t28.5 69t67.5 29q41 0 70 -27.5t29 -66.5z" />
    <glyph glyph-name="igrave" unicode="&#xec;" horiz-adv-x="565" 
d="M510 0h-449v57l144 27v780l-144 23v55q148 33 207 43t90 10h7v-911l145 -27v-57zM421 1083h-59l-252 236q-10 9 -14.5 20.5t-4.5 26.5q0 29 18 48.5t46 19.5q17 0 34.5 -10t26.5 -25z" />
    <glyph glyph-name="iacute" unicode="&#xed;" horiz-adv-x="565" 
d="M510 0h-449v57l144 27v780l-144 23v55q148 33 207 43t90 10h7v-911l145 -27v-57zM206 1083h-59l204 315q11 16 28 26t34 10q28 0 46 -19.5t18 -48.5q0 -13 -5.5 -26t-13.5 -21z" />
    <glyph glyph-name="icircumflex" unicode="&#xee;" horiz-adv-x="565" 
d="M510 0h-449v57l144 27v780l-144 23v55q148 33 207 43t90 10h7v-911l145 -27v-57zM577 1083h-60l-233 234l-233 -234h-60l225 351h136z" />
    <glyph glyph-name="idieresis" unicode="&#xef;" horiz-adv-x="565" 
d="M510 0h-449v57l144 27v780l-144 23v55q148 33 207 43t90 10h7v-911l145 -27v-57zM235 1245q0 -42 -27.5 -71t-66.5 -29q-42 0 -71.5 28t-29.5 68t28.5 69t68.5 29t69 -27.5t29 -66.5zM528 1245q0 -41 -28.5 -70.5t-68.5 -29.5q-41 0 -69.5 28t-28.5 68t28.5 69t67.5 29
q41 0 70 -27.5t29 -66.5z" />
    <glyph glyph-name="eth" unicode="&#xf0;" horiz-adv-x="1192" 
d="M942 510q0 201 -93.5 313.5t-260.5 112.5q-169 0 -253.5 -117t-84.5 -350q0 -215 90 -332t256 -117q163 0 254.5 129.5t91.5 360.5zM575 1315q283 -209 413 -405.5t130 -411.5q0 -258 -134.5 -397.5t-383.5 -139.5q-259 0 -392.5 129t-133.5 379q0 263 128.5 394.5
t385.5 131.5q60 0 108.5 -5.5t89.5 -16.5q-39 54 -106 124t-176 169l-268 -189l-39 53l258 181q-50 43 -104.5 88t-119.5 94l39 41q57 -38 117.5 -81t132.5 -97l256 180l37 -53z" />
    <glyph glyph-name="ntilde" unicode="&#xf1;" horiz-adv-x="1229" 
d="M1180 0h-449v57l143 27v526q0 138 -56 202.5t-177 64.5q-137 0 -206.5 -100t-69.5 -298v-395l145 -27v-57h-449v57l144 27v780l-144 23v55q137 31 198.5 42t92.5 11h6v-243q56 129 135.5 186t204.5 57q168 0 252 -87t84 -261v-563l146 -27v-57zM897 1337
q-3 -87 -51.5 -136.5t-130.5 -49.5q-51 0 -130.5 36t-115.5 36q-41 0 -64.5 -19.5t-33.5 -62.5h-60q2 87 50.5 136.5t131.5 49.5q53 0 137.5 -37t123.5 -37q37 0 57.5 20.5t26.5 63.5h59z" />
    <glyph glyph-name="ograve" unicode="&#xf2;" horiz-adv-x="1192" 
d="M942 510q0 201 -93.5 313.5t-260.5 112.5q-169 0 -253.5 -117t-84.5 -350q0 -215 90 -332t256 -117q163 0 254.5 129.5t91.5 360.5zM1118 498q0 -258 -134.5 -397.5t-383.5 -139.5q-259 0 -392.5 129t-133.5 379q0 261 129.5 393.5t384.5 132.5q259 0 394.5 -127
t135.5 -370zM733 1083h-59l-252 236q-10 9 -14.5 20.5t-4.5 26.5q0 29 18 48.5t46 19.5q17 0 34.5 -10t26.5 -25z" />
    <glyph glyph-name="oacute" unicode="&#xf3;" horiz-adv-x="1192" 
d="M942 510q0 201 -93.5 313.5t-260.5 112.5q-169 0 -253.5 -117t-84.5 -350q0 -215 90 -332t256 -117q163 0 254.5 129.5t91.5 360.5zM1118 498q0 -258 -134.5 -397.5t-383.5 -139.5q-259 0 -392.5 129t-133.5 379q0 261 129.5 393.5t384.5 132.5q259 0 394.5 -127
t135.5 -370zM518 1083h-59l204 315q11 16 28 26t34 10q28 0 46 -19.5t18 -48.5q0 -13 -5.5 -26t-13.5 -21z" />
    <glyph glyph-name="ocircumflex" unicode="&#xf4;" horiz-adv-x="1192" 
d="M942 510q0 201 -93.5 313.5t-260.5 112.5q-169 0 -253.5 -117t-84.5 -350q0 -215 90 -332t256 -117q163 0 254.5 129.5t91.5 360.5zM1118 498q0 -258 -134.5 -397.5t-383.5 -139.5q-259 0 -392.5 129t-133.5 379q0 261 129.5 393.5t384.5 132.5q259 0 394.5 -127
t135.5 -370zM889 1083h-60l-233 234l-233 -234h-60l225 351h136z" />
    <glyph glyph-name="otilde" unicode="&#xf5;" horiz-adv-x="1192" 
d="M942 510q0 201 -93.5 313.5t-260.5 112.5q-169 0 -253.5 -117t-84.5 -350q0 -215 90 -332t256 -117q163 0 254.5 129.5t91.5 360.5zM1118 498q0 -258 -134.5 -397.5t-383.5 -139.5q-259 0 -392.5 129t-133.5 379q0 261 129.5 393.5t384.5 132.5q259 0 394.5 -127
t135.5 -370zM889 1337q-3 -87 -51.5 -136.5t-130.5 -49.5q-51 0 -130.5 36t-115.5 36q-41 0 -64.5 -19.5t-33.5 -62.5h-60q2 87 50.5 136.5t131.5 49.5q53 0 137.5 -37t123.5 -37q37 0 57.5 20.5t26.5 63.5h59z" />
    <glyph glyph-name="odieresis" unicode="&#xf6;" horiz-adv-x="1192" 
d="M942 510q0 201 -93.5 313.5t-260.5 112.5q-169 0 -253.5 -117t-84.5 -350q0 -215 90 -332t256 -117q163 0 254.5 129.5t91.5 360.5zM1118 498q0 -258 -134.5 -397.5t-383.5 -139.5q-259 0 -392.5 129t-133.5 379q0 261 129.5 393.5t384.5 132.5q259 0 394.5 -127
t135.5 -370zM547 1245q0 -42 -27.5 -71t-66.5 -29q-42 0 -71.5 28t-29.5 68t28.5 69t68.5 29t69 -27.5t29 -66.5zM840 1245q0 -41 -28.5 -70.5t-68.5 -29.5q-41 0 -69.5 28t-28.5 68t28.5 69t67.5 29q41 0 70 -27.5t29 -66.5z" />
    <glyph glyph-name="divide" unicode="&#xf7;" horiz-adv-x="1249" 
d="M739 197q0 -62 -25.5 -88.5t-84.5 -26.5q-60 0 -88.5 27t-28.5 84q0 59 27.5 87.5t85.5 28.5q56 0 85 -28.5t29 -83.5zM1112 440h-975v111h975v-111zM739 799q0 -63 -25 -90t-85 -27q-59 0 -88 28t-29 85q0 58 27.5 86t85.5 28q57 0 85.5 -27.5t28.5 -82.5z" />
    <glyph glyph-name="oslash" unicode="&#xf8;" horiz-adv-x="1192" 
d="M45 -219l-51 45l223 256q-74 74 -108.5 167t-34.5 220q0 261 129.5 393.5t384.5 132.5q104 0 187.5 -21t158.5 -67l174 201l51 -45l-172 -199q69 -76 100 -163t31 -203q0 -255 -133 -396t-373 -141q-100 0 -183.5 19.5t-158.5 60.5zM307 186l547 629q-55 63 -119 92
t-147 29q-169 0 -253.5 -117t-84.5 -350q0 -83 14 -152t43 -131zM893 756l-545 -627q54 -57 116.5 -83t145.5 -26q152 0 242 132.5t90 357.5q0 71 -12 131t-37 115z" />
    <glyph glyph-name="ugrave" unicode="&#xf9;" horiz-adv-x="1235" 
d="M1178 0h-308v205q-60 -126 -143 -186t-197 -60q-158 0 -246.5 92t-88.5 256v551l-144 23v55q132 33 197 46t96 13h10v-649q0 -129 56.5 -197.5t162.5 -68.5q146 0 218.5 92.5t72.5 278.5v407l-145 23v55q136 34 200 46.5t95 12.5h10v-909l154 -25v-61zM717 1083h-59
l-252 236q-10 9 -14.5 20.5t-4.5 26.5q0 29 18 48.5t46 19.5q17 0 34.5 -10t26.5 -25z" />
    <glyph glyph-name="uacute" unicode="&#xfa;" horiz-adv-x="1235" 
d="M1178 0h-308v205q-60 -126 -143 -186t-197 -60q-158 0 -246.5 92t-88.5 256v551l-144 23v55q132 33 197 46t96 13h10v-649q0 -129 56.5 -197.5t162.5 -68.5q146 0 218.5 92.5t72.5 278.5v407l-145 23v55q136 34 200 46.5t95 12.5h10v-909l154 -25v-61zM502 1083h-59
l204 315q11 16 28 26t34 10q28 0 46 -19.5t18 -48.5q0 -13 -5.5 -26t-13.5 -21z" />
    <glyph glyph-name="ucircumflex" unicode="&#xfb;" horiz-adv-x="1235" 
d="M1178 0h-308v205q-60 -126 -143 -186t-197 -60q-158 0 -246.5 92t-88.5 256v551l-144 23v55q132 33 197 46t96 13h10v-649q0 -129 56.5 -197.5t162.5 -68.5q146 0 218.5 92.5t72.5 278.5v407l-145 23v55q136 34 200 46.5t95 12.5h10v-909l154 -25v-61zM873 1083h-60
l-233 234l-233 -234h-60l225 351h136z" />
    <glyph glyph-name="udieresis" unicode="&#xfc;" horiz-adv-x="1235" 
d="M1178 0h-308v205q-60 -126 -143 -186t-197 -60q-158 0 -246.5 92t-88.5 256v551l-144 23v55q132 33 197 46t96 13h10v-649q0 -129 56.5 -197.5t162.5 -68.5q146 0 218.5 92.5t72.5 278.5v407l-145 23v55q136 34 200 46.5t95 12.5h10v-909l154 -25v-61zM531 1245
q0 -42 -27.5 -71t-66.5 -29q-42 0 -71.5 28t-29.5 68t28.5 69t68.5 29t69 -27.5t29 -66.5zM824 1245q0 -41 -28.5 -70.5t-68.5 -29.5q-41 0 -69.5 28t-28.5 68t28.5 69t67.5 29q41 0 70 -27.5t29 -66.5z" />
    <glyph glyph-name="yacute" unicode="&#xfd;" horiz-adv-x="1090" 
d="M1100 911l-115 -28l-463 -1063q-71 -162 -132 -220.5t-148 -58.5q-35 0 -77.5 5t-105.5 16v268h56l29 -217q19 -8 40 -11t54 -3q121 0 280 380l8 21h-65l-348 883l-117 28v56h422v-56l-123 -28l285 -758l327 758l-125 28v56h318v-56zM493 1083h-59l204 315q11 16 28 26
t34 10q28 0 46 -19.5t18 -48.5q0 -13 -5.5 -26t-13.5 -21z" />
    <glyph glyph-name="thorn" unicode="&#xfe;" horiz-adv-x="1276" 
d="M1026 471q0 224 -88.5 345.5t-249.5 121.5q-157 0 -239 -113.5t-82 -330.5q0 -237 74.5 -355.5t224.5 -118.5q177 0 268.5 114.5t91.5 336.5zM367 852q81 73 167.5 108t186.5 35q237 0 359 -132.5t122 -391.5q0 -258 -132.5 -384t-403.5 -126q-104 0 -173.5 29.5
t-125.5 95.5v-461l163 -26v-58h-469v58l146 26v1788l-146 25v55q121 27 189 39t104 12h13v-692z" />
    <glyph glyph-name="ydieresis" unicode="&#xff;" horiz-adv-x="1090" 
d="M1100 911l-115 -28l-463 -1063q-71 -162 -132 -220.5t-148 -58.5q-35 0 -77.5 5t-105.5 16v268h56l29 -217q19 -8 40 -11t54 -3q121 0 280 380l8 21h-65l-348 883l-117 28v56h422v-56l-123 -28l285 -758l327 758l-125 28v56h318v-56zM522 1245q0 -42 -27.5 -71t-66.5 -29
q-42 0 -71.5 28t-29.5 68t28.5 69t68.5 29t69 -27.5t29 -66.5zM815 1245q0 -41 -28.5 -70.5t-68.5 -29.5q-41 0 -69.5 28t-28.5 68t28.5 69t67.5 29q41 0 70 -27.5t29 -66.5z" />
    <glyph glyph-name="dotlessi" unicode="&#x131;" horiz-adv-x="565" 
d="M510 0h-449v57l144 27v780l-144 23v55q148 33 207 43t90 10h7v-911l145 -27v-57z" />
    <glyph glyph-name="OE" unicode="&#x152;" horiz-adv-x="2482" 
d="M2390 449l-43 -449h-895v221q-115 -133 -254 -196.5t-315 -63.5q-403 0 -600 187.5t-197 570.5q0 410 194 606.5t601 196.5q184 0 322 -53.5t249 -168.5v193h842l22 -377h-65l-74 318h-551v-576h402l45 234h57v-531h-57l-45 238h-402v-740h584l119 390h61zM285 715
q0 -337 151 -514.5t436 -177.5q259 0 419.5 200t160.5 527q0 341 -150 527.5t-423 186.5q-300 0 -447 -185t-147 -564z" />
    <glyph glyph-name="oe" unicode="&#x153;" horiz-adv-x="1894" 
d="M942 510q0 201 -93.5 313.5t-260.5 112.5q-169 0 -253.5 -117t-84.5 -350q0 -215 90 -332t256 -117q163 0 254.5 129.5t91.5 360.5zM1012 158q-61 -99 -160 -148t-240 -49q-268 0 -403 127.5t-135 380.5q0 261 129.5 393.5t384.5 132.5q156 0 263.5 -48.5t168.5 -145.5
q53 97 147.5 145.5t231.5 48.5q210 0 315 -106t105 -318v-39l-2 -24h-711v-10q0 -215 69 -319.5t209 -104.5q95 0 192 30.5t206 94.5v-80q-101 -81 -198.5 -119.5t-199.5 -38.5q-145 0 -235 47.5t-137 149.5zM1645 565v10q0 187 -62 275t-192 88q-137 0 -208 -94.5
t-73 -277.5z" />
    <glyph glyph-name="Scaron" unicode="&#x160;" horiz-adv-x="1208" 
d="M852 1352q-12 46 -84.5 79t-169.5 33q-128 0 -191 -67.5t-63 -206.5q0 -84 27.5 -142.5t83.5 -95.5q49 -32 181 -76q49 -17 75 -26q209 -76 287.5 -170.5t78.5 -257.5q0 -237 -129.5 -349t-404.5 -112q-120 0 -221.5 20t-180.5 58l-24 410h61l80 -312q58 -61 126 -87.5
t169 -26.5q171 0 250.5 80t79.5 253q0 125 -55 192.5t-264 147.5q-13 5 -36 14q-242 93 -305 189q-30 46 -44.5 107.5t-14.5 148.5q0 178 119 272.5t344 94.5q80 0 161.5 -18t165.5 -54l23 -338h-66zM897 1960l-225 -351h-136l-225 351h60l233 -234l233 234h60z" />
    <glyph glyph-name="scaron" unicode="&#x161;" horiz-adv-x="840" 
d="M608 848q-40 44 -86 65t-106 21q-103 0 -148 -36.5t-45 -119.5q0 -77 37.5 -117.5t181.5 -85.5q194 -59 251 -127t57 -202q0 -151 -80.5 -218t-261.5 -67q-92 0 -172 15t-152 47l-10 305h61l45 -211q49 -52 103 -74.5t135 -22.5q102 0 145 44.5t43 148.5q0 78 -43.5 123
t-191.5 94q-184 59 -228.5 117t-44.5 180q0 140 75.5 204t240.5 64q74 0 141 -15t139 -48l11 -264h-56zM714 1434l-225 -351h-136l-225 351h60l233 -234l233 234h60z" />
    <glyph glyph-name="Ydieresis" unicode="&#x178;" horiz-adv-x="1333" 
d="M1315 1436l-148 -25l-411 -733v-596l211 -25v-57h-600v57l213 25v592l-426 737l-142 25v57h494v-57l-158 -25l373 -661l369 661l-148 25v57h373v-57zM645 1771q0 -42 -27.5 -71t-66.5 -29q-42 0 -71.5 28t-29.5 68t28.5 69t68.5 29t69 -27.5t29 -66.5zM938 1771
q0 -41 -28.5 -70.5t-68.5 -29.5q-41 0 -69.5 28t-28.5 68t28.5 69t67.5 29q41 0 70 -27.5t29 -66.5z" />
    <glyph glyph-name="Zcaron" unicode="&#x17d;" horiz-adv-x="1362" 
d="M1276 449l-43 -449h-1155v57l911 1377h-751l-74 -318h-66l23 377h1091v-57l-909 -1377h793l118 390h62zM975 1960l-225 -351h-136l-225 351h60l233 -234l233 234h60z" />
    <glyph glyph-name="zcaron" unicode="&#x17e;" horiz-adv-x="958" 
d="M881 0h-826v37l574 872h-424l-35 -284h-61v342h725v-37l-574 -871h524l35 285h62v-344zM773 1434l-225 -351h-136l-225 351h60l233 -234l233 234h60z" />
    <glyph glyph-name="florin" unicode="&#x192;" horiz-adv-x="1065" 
d="M862 801v-53h-280v-805q0 -219 -87.5 -337t-248.5 -118q-33 0 -75 4.5t-107 15.5l-1 269h56l28 -217q20 -8 40 -11.5t42 -3.5q100 0 146.5 120.5t46.5 379.5v703h-246v53h246v266q0 219 87.5 337t248.5 118q29 0 71.5 -5t110.5 -16v-268h-55l-29 217q-18 7 -38.5 10.5
t-43.5 3.5q-99 0 -145.5 -120t-46.5 -379v-164h280z" />
    <glyph glyph-name="circumflex" unicode="&#x2c6;" horiz-adv-x="1024" 
d="M805 1083h-60l-233 234l-233 -234h-60l225 351h136z" />
    <glyph glyph-name="caron" unicode="&#x2c7;" horiz-adv-x="1024" 
d="M805 1434l-225 -351h-136l-225 351h60l233 -234l233 234h60z" />
    <glyph glyph-name="tilde" unicode="&#x2dc;" horiz-adv-x="1024" 
d="M805 1337q-3 -87 -51.5 -136.5t-130.5 -49.5q-51 0 -130.5 36t-115.5 36q-41 0 -64.5 -19.5t-33.5 -62.5h-60q2 87 50.5 136.5t131.5 49.5q53 0 137.5 -37t123.5 -37q37 0 57.5 20.5t26.5 63.5h59z" />
    <glyph glyph-name="endash" unicode="&#x2013;" horiz-adv-x="975" 
d="M1014 440h-1053v111h1053v-111z" />
    <glyph glyph-name="emdash" unicode="&#x2014;" horiz-adv-x="1950" 
d="M1989 440h-2028v111h2028v-111z" />
    <glyph glyph-name="quoteleft" unicode="&#x2018;" 
d="M291 1309h8q66 0 97.5 -27t31.5 -84q0 -59 -27.5 -87t-85.5 -28q-63 0 -88.5 36.5t-25.5 133.5q0 138 48 203.5t148 65.5h13v-64q-62 -11 -90.5 -44t-28.5 -93v-12z" />
    <glyph glyph-name="quoteright" unicode="&#x2019;" 
d="M338 1290q-73 0 -105 26.5t-32 86.5q0 59 27 87t83 28q64 0 90.5 -38t26.5 -134q0 -137 -48 -202t-149 -65h-12v62q62 10 90.5 43.5t28.5 95.5v10z" />
    <glyph glyph-name="quotesinglbase" unicode="&#x201a;" 
d="M338 -39h-8q-68 0 -98.5 26.5t-30.5 84.5t27 86t83 28q64 0 90.5 -37.5t26.5 -134.5q0 -136 -48 -201t-149 -65h-12v64q63 10 91 42.5t28 94.5v12z" />
    <glyph glyph-name="quotedblleft" unicode="&#x201c;" horiz-adv-x="975" 
d="M291 1309h8q66 0 97.5 -27t31.5 -84q0 -59 -27.5 -87t-85.5 -28q-63 0 -88.5 36.5t-25.5 133.5q0 138 48 203.5t148 65.5h13v-64q-62 -11 -90.5 -44t-28.5 -93v-12zM641 1313q71 0 104 -27.5t33 -87.5q0 -59 -27 -87t-83 -28q-64 0 -89.5 36.5t-25.5 133.5q0 139 47 204
t148 65h12v-64q-62 -11 -90.5 -43.5t-28.5 -91.5v-10z" />
    <glyph glyph-name="quotedblright" unicode="&#x201d;" horiz-adv-x="975" 
d="M338 1290q-73 0 -105 26.5t-32 86.5q0 59 27 87t83 28q64 0 90.5 -38t26.5 -134q0 -137 -48 -202t-149 -65h-12v62q62 10 90.5 43.5t28.5 95.5v10zM688 1290q-71 0 -103 26.5t-32 86.5q0 59 27 87t84 28q62 0 88 -38t26 -137q0 -135 -47.5 -199.5t-148.5 -64.5h-13v62
q62 10 90.5 43.5t28.5 95.5v10z" />
    <glyph glyph-name="quotedblbase" unicode="&#x201e;" horiz-adv-x="975" 
d="M338 -39h-8q-68 0 -98.5 26.5t-30.5 84.5t27 86t83 28q64 0 90.5 -37.5t26.5 -134.5q0 -136 -48 -201t-149 -65h-12v64q63 10 91 42.5t28 94.5v12zM688 -39h-8q-67 0 -97 26.5t-30 84.5t27 86t84 28q62 0 88 -37.5t26 -136.5q0 -135 -47.5 -199.5t-148.5 -64.5h-13v64
q63 10 91 42.5t28 94.5v12z" />
    <glyph glyph-name="dagger" unicode="&#x2020;" horiz-adv-x="1024" 
d="M606 575l-86 -776h-18l-88 776l75 367l-200 -65l-207 67v39l207 66l200 -64l-75 262l80 246h36l76 -246l-76 -262l205 64l203 -66v-39l-203 -67l-205 65z" />
    <glyph glyph-name="daggerdbl" unicode="&#x2021;" horiz-adv-x="1024" 
d="M489 942l-200 -65l-207 67v39l207 66l200 -64l-75 262l80 246h36l76 -246l-76 -262l205 64l203 -66v-39l-203 -67l-205 65l76 -301l-76 -291l201 64l207 -66v-39l-207 -67l-201 65l76 -262l-80 -246h-32l-80 246l75 262l-204 -65l-203 67v39l203 66l204 -64l-75 291z" />
    <glyph glyph-name="bullet" unicode="&#x2022;" horiz-adv-x="780" 
d="M702 741q0 -129 -91 -220t-222 -91q-130 0 -220.5 90.5t-90.5 220.5t90.5 221t220.5 91q131 0 222 -91t91 -221z" />
    <glyph glyph-name="ellipsis" unicode="&#x2026;" horiz-adv-x="1950" 
d="M440 76q0 -62 -25.5 -88.5t-84.5 -26.5t-87 27t-28 84q0 58 27 86t84 28t85.5 -27.5t28.5 -82.5zM1090 76q0 -62 -26 -88.5t-85 -26.5t-87 27t-28 84q0 58 27 86t84 28t86 -27.5t29 -82.5zM1741 76q0 -61 -26.5 -88t-86.5 -27q-58 0 -86.5 27t-28.5 84q0 58 27 86t84 28
t87 -28t30 -82z" />
    <glyph glyph-name="perthousand" unicode="&#x2030;" horiz-adv-x="3043" 
d="M297 995q0 -189 52.5 -267.5t176.5 -78.5q125 0 175.5 74t50.5 272q0 267 -49.5 364t-172.5 97q-131 0 -182 -82t-51 -336v-43zM1358 371q0 -189 53 -267.5t176 -78.5q125 0 175 74t50 274q0 266 -49.5 363.5t-171.5 97.5q-132 0 -182.5 -82.5t-50.5 -337.5v-43z
M2294 371q0 -189 52.5 -267.5t176.5 -78.5q125 0 175 74t50 274q0 266 -49.5 363.5t-171.5 97.5q-131 0 -182 -83.5t-51 -336.5v-43zM928 1065q0 -248 -94.5 -363.5t-296.5 -115.5q-215 0 -317.5 111t-102.5 343q0 251 99.5 366.5t315.5 115.5q203 0 299.5 -111t96.5 -346z
M1688 1522l-1135 -1561h-129l1135 1561h129zM1989 440q0 -248 -94.5 -363.5t-297.5 -115.5q-214 0 -316.5 111.5t-102.5 343.5q0 249 100 365t315 116q203 0 299.5 -111t96.5 -346zM2927 440q0 -247 -95.5 -363t-298.5 -116q-214 0 -315.5 111t-101.5 344q0 250 99.5 365.5
t313.5 115.5q204 0 301 -111t97 -346z" />
    <glyph glyph-name="guilsinglleft" unicode="&#x2039;" 
d="M500 924l43 -33l-264 -404l264 -403l-43 -33l-389 436z" />
    <glyph glyph-name="guilsinglright" unicode="&#x203a;" 
d="M514 487l-389 -436l-43 33l264 403l-264 404l43 33z" />
    <glyph glyph-name="trademark" unicode="&#x2122;" horiz-adv-x="784" 
d="M252 1386l-14 72h-62v-209l49 -2v-35h-159v35l49 2v209h-64l-14 -72h-27l6 107h256l7 -107h-27zM590 1212v35l31 2v160l-107 -197h-29l-96 213v-176l31 -2v-35h-111v35l39 2v205l-39 4v35h111l94 -207l111 207h98v-35l-41 -4v-205l41 -2v-35h-133z" />
    </font>
</defs>
</svg>
